<?xml version="1.0" standalone="no"?>
<!DOCTYPE svg PUBLIC "-//W3C//DTD SVG 1.1//EN" "http://www.w3.org/Graphics/SVG/1.1/DTD/svg11.dtd" >
<svg xmlns="http://www.w3.org/2000/svg">
<metadata>
This is a custom SVG webfont generated by Font Squirrel.
Copyright   : Copyright c 2011 Cyreal wwwcyrealorgwith Reserved Font Name Alice and Alice RegularThis Font Software is licensed under the SIL Open Font LicenseVersion 11 This license is available with a FAQ athttpscriptssilorgOFL
Designer    : Cyreal wwwcyrealorg
Foundry     : Cyreal wwwcyrealorg
Foundry URL : httpcyrealorg
</metadata>
<defs>
<font id="AliceRegular" horiz-adv-x="1337" >
<font-face units-per-em="2048" ascent="1638" descent="-410" />
<missing-glyph horiz-adv-x="456" />
<glyph unicode=" "  horiz-adv-x="456" />
<glyph unicode="&#x09;" horiz-adv-x="456" />
<glyph unicode="&#xa0;" horiz-adv-x="456" />
<glyph unicode="!" horiz-adv-x="536" d="M137 103.5q0 56.5 37 94.5t94.5 38t94 -38t36.5 -94.5t-36.5 -92.5t-94 -36t-94.5 36t-37 92.5zM158 1167q0 240 110.5 240t110.5 -240q0 -135 -23 -305q-39 -315 -39 -409q0 -29 -49 -29t-49 29q0 94 -22 264q-39 315 -39 450z" />
<glyph unicode="&#x22;" horiz-adv-x="694" d="M92 1264q0 145 98 145q96 0 97 -143q0 -80 -21 -181q-37 -190 -39 -249q0 -23 -36.5 -23t-37.5 32t-12 85l-20 112q-29 161 -29 222zM406 1264q0 145 98 145q96 0 96 -143q0 -80 -18 -181q-39 -190 -41 -249q0 -23 -37 -23t-38 32t-11 85l-21 112q-28 161 -28 222z" />
<glyph unicode="#" horiz-adv-x="1261" d="M86 419q0 54 39 58h203l71 338h-192q-39 0 -39 54.5t39 58.5h215l70 327q8 37 40 37q66 0 70 -37l-70 -327h314l74 325q10 39 43 39q63 0 67 -39l-69 -325h176q39 -4 39 -58.5t-39 -54.5h-199l-72 -338h189q39 -4 39 -58t-39 -54h-209l-70 -328q-10 -37 -41 -37 q-66 0 -69 37l69 328h-319l-68 -326q-8 -39 -41 -39q-68 0 -71 39l67 326h-178q-39 0 -39 54zM438 477h318l69 338h-315z" />
<glyph unicode="$" horiz-adv-x="1024" d="M123 209q20 123 125 123q43 0 64.5 -20.5t21.5 -28t-9.5 -14.5t-21.5 -19q-28 -32 -28 -68q0 -39 17 -64q15 -24 40 -40q51 -31 123 -35v483q-158 66 -213 109q-111 86 -115 211v11q0 182 197 261q59 25 131 35v111q0 47 40 47t40 -47v-105h8q154 0 245 -82 q58 -49 58 -124q0 -15 -2 -31q-10 -68 -50 -94.5t-78 -26.5t-61.5 20.5t-23.5 26.5t10 14t23 21q31 35 30.5 70.5t-15.5 59t-38 40.5q-43 29 -106 32v-409q385 -150 385 -374q0 -167 -97 -243q-98 -78 -288 -86v-108q0 -47 -40 -47t-40 47v108h-27q-154 0 -248 80 q-60 49 -60 125q1 15 3 31zM279 917.5q0 -55.5 14 -89t39 -58.5q35 -33 123 -63v376q-92 -14 -134 -62t-42 -103.5zM535 43q90 10 155 57q67 48 67 122q0 62 -17 100q-17 39 -48 69q-49 49 -157 98v-446z" />
<glyph unicode="%" horiz-adv-x="1589" d="M90 952.5q0 112.5 30 177t76 109.5t102 67.5t120.5 22.5t124 -27.5t100.5 -72.5q88 -96 88 -208t-29.5 -178.5t-76.5 -111.5q-96 -92 -192.5 -92t-156 27.5t-100.5 74.5q-86 99 -86 211.5zM227 22q-5 9 -5 18q0 12 9 23l990 1201q21 26 45 25q9 0 18 -3q55 -17 55 -46 q0 -14 -12 -30l-993 -1198q-25 -26 -49 -26q-8 0 -15 3q-31 11 -43 33zM242 985q0 -260 168 -260q170 0 170 260t-169 260t-169 -260zM858 272.5q0 112.5 30 178t76 110.5t102 67.5t120.5 22.5t124 -27.5t102.5 -74.5q88 -96 88 -208t-29.5 -178.5t-76.5 -111.5 q-96 -92 -193.5 -92t-156 27.5t-99.5 74.5q-88 99 -88 211.5zM1012 307q0 -260 166 -260q170 0 170 260t-168 260t-168 -260z" />
<glyph unicode="&#x26;" horiz-adv-x="1792" d="M84 468.5q0 106.5 21.5 173.5t62.5 120q90 115 254 143v6q-129 98 -129 236.5t97 220.5t272 82q195 0 266 -119q25 -39 24.5 -97t-36 -107.5t-92 -49.5t-81 22.5t-24.5 29t10 14.5t25 22q33 37 32.5 89.5t-43.5 87t-125.5 34.5t-134 -62.5t-51.5 -144.5q0 -150 125 -217 h68q25 0 40 -4q16 -4 16 -51q0 -43 -38 -43h-72q-131 -10 -206 -109q-63 -86 -63.5 -197.5t35.5 -192.5t99 -138q131 -115 346 -115q227 0 385 136q162 137 162 346q0 190 -141 268q-45 27 -87 27t-73 -8.5t-57 -24.5q-60 -37 -60 -79q0 -91 70 -103q10 -2 20 -2q48 0 89 43 q18 16 38 -18q15 -25 16 -58q0 -12 -2 -25q-7 -49 -47 -78.5t-106.5 -29.5t-114 62.5t-47.5 164.5t41 168.5t105.5 106.5t147.5 59.5t167 29.5l162 19q154 18 198 61q42 41 42 73q0 68 -76 79q-8 1 -16 0q-50 0 -75 -23q-30 -27 -36 -25.5t-24 29.5q-13 21 -13 50q0 10 2 21 q6 42 29.5 67.5t54.5 38.5q33 13 64 12q34 0 67 -14q101 -46 101 -176q0 -7 -1 -15q-4 -164 -157 -264q-145 -92 -365 -92q176 -147 176 -320.5t-54 -289t-150 -195.5q-192 -164 -484 -164h-14q-428 8 -582 301q-53 102 -53 208.5z" />
<glyph unicode="'" horiz-adv-x="380" d="M92 1264q0 145 98 145q96 0 97 -143q0 -80 -21 -181q-37 -190 -39 -249q0 -23 -36.5 -23t-37.5 32t-12 85l-20 112q-29 161 -29 222z" />
<glyph unicode="(" horiz-adv-x="600" d="M74 575.5q0 284.5 115.5 521t338.5 394.5q13 8 24 8q17 0 26 -21q3 -8 3 -17q0 -28 -37 -63q-48 -46 -106.5 -138.5t-101.5 -200.5q-88 -229 -88 -484q0 -391 186 -681q59 -92 108 -139q41 -39 41 -61q0 -4 -1 -7q-14 -31 -35 -31q-9 0 -21 6q-223 154 -337.5 391.5 t-114.5 522z" />
<glyph unicode=")" horiz-adv-x="600" d="M16 1466q14 31 35 31q9 0 21 -6q223 -158 338.5 -394.5t115.5 -521t-114.5 -522t-337.5 -391.5q-13 -8 -24 -8q-17 0 -25 21q-3 8 -4 17q0 28 37 63q48 46 106.5 137.5t99.5 199.5q88 233 88 483q0 385 -188 685q-59 92 -108 138q-41 39 -41 61q0 4 1 7z" />
<glyph unicode="*" horiz-adv-x="1077" d="M90 1108q-2 37 26.5 65.5t66.5 28.5t67 -10l63 -25q98 -37 181 -45l14 13q-61 70 -115 110l-78 58q-23 16 -41 50q-12 22 -11 44q0 13 3 25q10 36 43 57q23 14 49 13q13 0 26 -3q40 -10 59.5 -41t25.5 -58.5t10 -62.5q14 -96 49 -178q4 2 19 2q37 74 43 141 q14 117 35.5 153t60.5 44q12 3 24 3q25 0 49 -12q34 -17 47 -55q5 -15 5 -29q0 -21 -11 -40q-19 -33 -42 -51l-53 -39q-82 -59 -134 -129q4 -4 4 -8.5t3 -8.5q96 12 157 39q111 45 154 45t72 -28q28 -28 27 -63q0 -38 -30 -69q-29 -29 -67.5 -28.5t-66 9.5t-62.5 24 q-98 37 -182 45l-13 -13q51 -63 111 -104q102 -76 121 -111q17 -30 17 -55q0 -42 -48 -72q-25 -14 -51 -13q-13 0 -27 3q-41 10 -60.5 41t-23.5 57l-12 66q-16 98 -49 174q-4 -2 -19 -2q-35 -74 -43 -141l-14 -97q-12 -88 -80 -98q-12 -3 -24 -3q-25 0 -48 12q-33 17 -48 55 q-7 16 -6 30q0 20 11 38q20 32 43 50.5t52 38.5q82 59 133 129q-4 4 -4 8.5t-2 8.5q-80 -8 -150 -35l-96 -37q-38 -14 -67 -14q-36 0 -57 22q-38 39 -36 76z" />
<glyph unicode="+" horiz-adv-x="1159" d="M74 540.5q0 55.5 45 55.5h397v385q0 23 20.5 37t44 14t44 -14t20.5 -37v-385h395q45 0 45 -55.5t-45 -55.5h-395v-434q0 -23 -20.5 -37t-44 -14t-44 14.5t-20.5 36.5v434h-397q-45 0 -45 55.5z" />
<glyph unicode="," horiz-adv-x="485" d="M59 -236q-7 15 -7 27q0 19 20 27q174 66 174 182q0 51 -53.5 86t-77 56.5t-23.5 58.5t30 68.5t74 31.5t81.5 -21.5t66.5 -58.5q57 -74 57 -150.5t-27.5 -126.5t-70.5 -87q-80 -70 -205 -103q-11 -4 -19 -4q-15 -1 -20 14z" />
<glyph unicode="-" horiz-adv-x="788" d="M123 473q0 66 47 66h448q47 0 48 -66q0 -20 -12.5 -42.5t-35.5 -22.5h-448q-23 0 -35 22.5t-12 42.5z" />
<glyph unicode="." horiz-adv-x="454" d="M96 101.5q0 56.5 37 93t93.5 36.5t94 -36.5t37.5 -93t-37.5 -91.5t-94 -35t-93.5 35t-37 91.5z" />
<glyph unicode="/" horiz-adv-x="806" d="M70 -340l553 1743q16 42 43 42q5 0 10 -1q63 -11 63 -51q0 -6 -2 -13l-557 -1742q-14 -42 -45 -42q-4 0 -8 1q-58 13 -58 53q0 5 1 10z" />
<glyph unicode="0" horiz-adv-x="1198" d="M113 524q0 236 118 391q129 170 369 170q227 0 363 -172q125 -158 124 -389q0 -229 -124 -389q-137 -176 -363 -176q-238 0 -369 172q-118 160 -118 393zM309 524.5q0 -239.5 76 -364.5t215 -125t215 125t76 364.5t-76 362.5t-215 123t-215 -123t-76 -362.5z" />
<glyph unicode="1" horiz-adv-x="876" d="M121 82q14 2 58 2t90 4t75 23q51 35 51 161v426q0 16 1 31q0 135 -35 154q-36 20 -81 19h-5h-35q-38 0 -88 1q-36 0 -36 41v2q1 43 15 47t51 4t94.5 12.5t106.5 28.5q92 31 123 45q22 10 36 10q31 0 31 -44v-777q0 -127 41 -153q51 -35 135.5 -35t98.5 -2t15 -45v-2 q0 -41 -36 -41q-37 2 -86 2l-96 4h-92h-126q-56 0 -104 -1l-97 -2q-48 -1 -85 -3q-36 0 -36 41q1 45 16 47z" />
<glyph unicode="2" horiz-adv-x="1005" d="M94 74q6 74 88 127l166 112q324 225 324 492q0 98 -52.5 152.5t-138.5 54.5t-139 -39t-53 -88t10 -68.5t23.5 -34t23.5 -22.5t10 -14.5t-24.5 -29t-79.5 -22.5t-92 41t-37 103.5t35 109.5t88 78q102 59 207.5 59t173 -16t121.5 -53q121 -84 120.5 -220.5t-65 -226.5 t-156.5 -162.5t-194.5 -133t-176.5 -117.5v-11h549q41 0 70 -9t29 -62q0 -74 -72 -74h-686q-72 0 -72 74z" />
<glyph unicode="3" horiz-adv-x="997" d="M104 183.5q0 58.5 34 104.5t92.5 46t83 -22.5t24.5 -30t-10.5 -13.5t-24.5 -18q-33 -31 -33 -88.5t54.5 -92t120 -34.5t105.5 14t71 43q66 61 65 187q0 215 -213 227h-76q-31 0 -30 41q0 43 30 47h76q82 8 129 72.5t47 152.5q0 195 -182 195q-70 0 -121 -34t-51 -83 t10 -68.5t23.5 -32t23.5 -19.5t10 -13t-24.5 -28.5t-80.5 -22.5t-92 42t-36 102.5t30.5 103.5t80.5 71q96 53 196.5 53t166 -13t118.5 -44q115 -68 115 -209q0 -80 -56.5 -155.5t-177.5 -108.5v-8q184 -16 254 -141q29 -49 29 -131t-36 -143.5t-95 -98.5q-111 -74 -293 -74 q-233 0 -324 123q-33 43 -33 101.5z" />
<glyph unicode="4" horiz-adv-x="1015" d="M31 399q0 27 14 45l576 629q20 20 63 21q76 0 80 -72v-594h123q23 0 38 -5q16 -5 16 -53q0 -43 -38 -42h-139v-314q0 -39 -88 -39q-82 0 -90 39v314h-490q-65 -1 -65 71zM150 428h436v485z" />
<glyph unicode="5" horiz-adv-x="993" d="M106 213q10 78 54.5 105.5t86.5 27.5t66.5 -22.5t24.5 -29.5t-10.5 -14.5t-24.5 -21.5q-33 -37 -33 -76t15.5 -65.5t40.5 -44.5q58 -43 118 -43q49 0 101 28q141 80 141 267q0 184 -121 251q-49 27 -103 27q-91 0 -198 -74q-41 -33 -74.5 -32.5t-30.5 37t3 45.5l63 487 h561q59 0 60 -77q0 -69 -72 -68h-455l-43 -285q100 57 191.5 57t159 -20.5t123.5 -63.5q133 -100 133 -274q0 -170 -146 -281q-129 -94 -301 -94q-166 0 -270 86q-62 52 -62 132q-1 17 2 36z" />
<glyph unicode="6" horiz-adv-x="1042" d="M109 410q0 250 175 440t453 240q11 1 21 1q51 0 51 -36q0 -33 -37 -43q-371 -115 -446 -420q125 82 235.5 82t176 -25.5t114.5 -70.5q102 -96 102 -213t-35.5 -185.5t-95.5 -118.5q-121 -102 -253 -102t-210.5 30.5t-134.5 88.5q-116 125 -116 332zM305 402.5 q0 -48.5 11.5 -115t35.5 -123.5q61 -139 170 -139t172.5 79.5t63.5 206.5t-63.5 199t-141.5 72q-133 0 -236 -95q-12 -36 -12 -84.5z" />
<glyph unicode="7" horiz-adv-x="872" d="M82 784l8 240q0 45 60 45h624q59 0 59 -42q0 -30 -31 -83q-75 -125 -129.5 -251t-101.5 -251l-86 -233q-76 -213 -104.5 -231.5t-52 -18.5t-45 21.5t-21.5 63.5t22.5 107.5t58.5 145.5t83 168l250 459h-359q-78 0 -100 -19q-41 -31 -49 -86t-16.5 -62t-39 -7.5 t-30.5 34.5z" />
<glyph unicode="8" horiz-adv-x="1050" d="M111 258q0 172 239 274q-190 115 -190 261q0 123 116 208q115 84 230 84t179.5 -21.5t111.5 -59.5q98 -78 98 -213.5t-205 -239.5q135 -57 191.5 -120.5t56.5 -143.5t-30.5 -136.5t-88.5 -99.5q-119 -92 -309 -92q-281 0 -371 180q-28 53 -28 119zM295 286 q0 -126 63.5 -192.5t169 -66.5t166 58t60.5 126t-23.5 103.5t-65.5 65.5t-104 58l-133 62q-133 -88 -133 -214zM330 846.5q0 -60.5 23.5 -94t63.5 -62t93 -53.5l111 -49q115 84 114 219q0 139 -112 192q-39 16 -113 16.5t-127 -54t-53 -115z" />
<glyph unicode="9" horiz-adv-x="1040" d="M86 680q0 117 36 185.5t95 117.5q121 102 253 102t211 -30.5t134 -87.5q117 -125 117 -332q0 -250 -175 -440.5t-454 -239.5q-11 -1 -21 -1q-51 0 -51 36q0 33 37 43q371 115 447 420q-125 -82 -235.5 -82t-176 25.5t-115.5 70.5q-102 96 -102 213zM283 733 q0 -127 63.5 -198.5t140.5 -71.5q133 0 236 94q12 37 12 85t-11 114.5t-36 124.5q-61 139 -169.5 139t-172 -80t-63.5 -207z" />
<glyph unicode=":" horiz-adv-x="507" d="M123 103.5q0 56.5 37 92t95 35.5t94 -35.5t36 -92t-37 -92.5t-94 -36t-94 36t-37 92.5zM123 749.5q0 57.5 36 93.5t94 36t94 -36t36 -93.5t-36 -92t-94 -34.5t-94 34.5t-36 92z" />
<glyph unicode=";" horiz-adv-x="534" d="M86 -236q-7 15 -7 27q0 19 19 27q174 66 174 182q0 51 -53 86t-76.5 56.5t-23.5 58.5t29.5 68.5t73.5 31.5t82 -21.5t65 -58.5q59 -74 59 -150.5t-27.5 -126.5t-70.5 -87q-80 -70 -205 -103q-11 -4 -19 -4q-15 -1 -20 14zM131 744.5q0 56.5 39 92t94 35.5t91 -35.5 t36 -92t-36 -92.5t-92 -36t-94 36t-38 92.5z" />
<glyph unicode="&#x3c;" horiz-adv-x="1083" d="M74 516q0 47 26 62l803 421q14 6 25 6q12 0 22 -7q18 -13 23 -35q2 -9 2 -18q0 -38 -37 -58l-684 -357v-6l684 -356q38 -21 38 -50q0 -5 -1 -12q-11 -57 -46 -57q-11 0 -26 6l-803 420q-26 18 -26 41z" />
<glyph unicode="=" horiz-adv-x="1290" d="M139 356.5q0 55.5 47 55.5h918q47 0 47 -55.5t-47 -55.5h-918q-47 0 -47 55.5zM139 700.5q0 55.5 47 55.5h918q47 0 47 -55.5t-47 -55.5h-918q-47 0 -47 55.5z" />
<glyph unicode="&#x3e;" horiz-adv-x="1083" d="M109 948q11 57 46 57q11 0 25 -6l803 -421q27 -14 27 -49t-27 -54l-803 -420q-14 -6 -25 -6q-12 0 -22 7q-18 13 -22 34q-2 10 -2 19q0 39 36 59l684 356v6l-684 357q-38 21 -38 50q1 5 2 11z" />
<glyph unicode="?" horiz-adv-x="890" d="M95 1217q15 68 58.5 103.5t94.5 55t99 25.5t98 7h7q48 0 111 -13q68 -14 121 -47q113 -74 113 -226q0 -143 -158 -262l-86 -60l-77 -54.5t-64 -55.5q-63 -63 -64 -135q0 -39 25.5 -63.5t56.5 -24.5q59 0 100 41q52 52 93 52q30 0 53 -30q7 -9 7 -19q0 -19 -24 -42 q-82 -86 -196 -86q-96 0 -150 51q-92 88 -92 201q0 117 135 213l78 51l78 49q129 86 129 179.5t-52 150.5q-50 55 -148 55h-7q-111 0 -160 -84q-16 -27 -16 -57.5t10.5 -50t23.5 -33.5t23.5 -22.5t10.5 -14.5t-25 -28.5t-66.5 -22.5t-71.5 18.5t-48 46.5q-24 44 -24 91 q-1 20 4 41zM303 103.5q0 56.5 37 94.5t94.5 38t94 -38t36.5 -94.5t-36.5 -92.5t-94 -36t-94.5 36t-37 92.5z" />
<glyph unicode="@" horiz-adv-x="1798" d="M104 449q0 334 252 577q266 258 670 258q328 0 514 -186q170 -170 170 -426q0 -227 -137 -385q-137 -162 -348 -162q-86 0 -147.5 39t-69.5 117q-111 -152 -242 -152q-160 0 -217 141q-20 49 -20.5 120t33.5 159t97.5 166t151.5 131t208 53t150 -104l33 73q14 29 44 29 t47.5 -5t29.5 -15q26 -20 26 -46q0 -7 -1 -14l-172 -444q-20 -47 -21 -83q0 -47 35 -75q20 -16 77.5 -16t124 35.5t115.5 99.5q104 135 105 348q0 221 -150 360q-162 150 -448 150q-285 0 -498 -188q-236 -211 -235 -539q0 -322 190 -502q178 -164 475 -164q254 0 500 140 q27 14 35 -7q18 -41 -6 -57q-231 -164 -535 -164q-334 0 -569 183q-267 203 -267 555zM707 383q0 -115 39 -140q26 -16 57 -17q17 0 36 5q52 14 104 57.5t75 96.5l117 309q-23 137 -134 137q-98 0 -198 -172q-96 -161 -96 -276z" />
<glyph unicode="A" d="M-9 78q13 4 45 4t57.5 13.5t43 36t29.5 50.5l383 905q11 28 11 50q0 50 -60 67q-23 8 -50.5 13.5t-38 10.5t-10.5 37.5t24 36t73 3.5t97 -9.5t85 -31.5q72 -43 129 -177l344 -847q43 -111 78 -134.5t62.5 -23.5t41 -4t14.5 -44v-2q0 -38 -36 -38q-98 6 -223 6t-256 -6 q-37 0 -36 40t14 44t49 4t62.5 9t34.5 28q3 7 3 18q0 33 -23 103l-70 170h-506q-25 -59 -36 -93l-19 -51q-6 -16 -8 -20t-10 -32t-14.5 -58.5t6.5 -46.5q20 -27 90.5 -27t84 -4t14.5 -44t-36 -40q-98 6 -176 6h-100h-43l-45 -4q-25 0 -58 -2q-36 0 -36 38q1 42 15 46z M401 498h430l-206 526h-7z" />
<glyph unicode="B" horiz-adv-x="1271" d="M101 78q13 4 49 4t63 13.5t39 35.5q18 33 18 109v813q0 115 -57 143q-27 14 -62.5 14t-49 4.5t-14.5 43.5v3q0 38 36 37q98 -6 242 -6h288q309 0 391 -162q31 -61 31 -131.5t-25.5 -123t-66.5 -89.5q-74 -68 -184 -92v-6q248 0 346 -182q29 -53 31 -141v-7 q0 -84 -52 -157q-53 -76 -137 -121q-150 -82 -375 -82l-245 2q-145 0 -244 -6q-36 0 -36 38q0 42 14 46zM473 240q0 -100 23 -125q37 -35 125 -35q334 0 333 313q-14 174 -215 234q-74 20 -182 20h-84v-407zM473 729h86q129 0 182 27q115 57 115 191t-52 202t-188 68h-143 v-488z" />
<glyph unicode="C" horiz-adv-x="1308" d="M100 637q0 315 182.5 505.5t487.5 190.5q293 0 410 -151q41 -55 41 -118t-13.5 -102.5t-40.5 -70.5q-59 -68 -155 -68q-82 0 -107 56q-4 12 -4 17t16.5 14.5t34.5 27.5q51 47 51.5 126t-61 133t-164 54t-181.5 -40t-136 -117q-121 -162 -121 -445q0 -250 129 -418 q133 -172 338 -172q209 0 332 195q18 35 51 14q47 -29 46 -54q0 -10 -7 -19q-117 -143 -197 -181q-121 -55 -274.5 -55t-268 46t-202.5 134q-187 191 -187 498z" />
<glyph unicode="D" horiz-adv-x="1490" d="M103 78q13 4 49 4t63 13.5t39 35.5q18 33 18 109v813q0 115 -57 143q-27 14 -62.5 14t-49 4.5t-14.5 43.5v3q0 38 34 37q102 -6 244 -6h319q303 0 498 -172q207 -182 207 -481q0 -307 -234 -483q-205 -156 -508 -156h-282q-141 0 -244 -6q-34 0 -34 38q0 42 14 46z M475 215q0 -84 50 -111.5t155 -27.5q463 0 463 563q0 256 -131 416q-137 164 -377 164h-41l-90 -2h-29v-1002z" />
<glyph unicode="E" horiz-adv-x="1216" d="M103 78q13 4 49 4t63 13.5t39 35.5q18 33 18 109v813q0 115 -57 143q-27 14 -62.5 14t-49 4.5t-14.5 43.5v3q0 38 34 37q102 -6 244 -6h643q53 0 53 -49l6 -287q0 -41 -55.5 -41t-63.5 37q-20 143 -51 185q-47 70 -149 73h-275v-520h371q31 -4 31 -47q0 -41 -31 -41h-371 v-387q2 -20 4 -44t17 -44q28 -45 109 -45h13h189q104 4 135 41q39 49 84 196q14 35 44 36q25 0 60 -23q16 -10 15 -31l-41 -258q-10 -43 -60 -43h-675q-143 0 -246 -6q-34 0 -34 38q0 42 14 46z" />
<glyph unicode="F" horiz-adv-x="1075" d="M103 78q13 4 49 4t63 13.5t39 35.5q18 33 18 109v813q0 115 -57 143q-27 14 -62.5 14t-49 4.5t-14.5 43.5v3q0 38 34 37q98 -6 244 -6h591q53 0 54 -49l6 -287q0 -41 -55 -41q-57 0 -66 37q-23 147 -49 187q-47 68 -150 71h-223v-532h367q33 -4 32 -47q0 -41 -32 -41 h-367v-350q0 -117 57 -146q27 -12 62 -12t49 -4t15 -44t-35 -40q-133 6 -267.5 6t-232.5 -6q-34 0 -34 38q0 42 14 46z" />
<glyph unicode="G" horiz-adv-x="1417" d="M100 637q0 313 199 506q201 190 516 190q274 0 393 -157q41 -53 41 -114t-13 -100.5t-38 -70.5q-53 -68 -119 -68q-145 0 -149 74q0 4 16.5 14.5t34.5 28.5q51 51 51 129t-67.5 130t-168 52t-182.5 -40t-143 -117q-131 -164 -131 -445q0 -272 129 -432q125 -158 338 -158 q111 0 221 33v209q0 98 -12 119q-25 39 -77 39t-68.5 4t-18.5 39q0 45 43 45q33 -2 58 -3l52 -2q26 -1 52 -1h107h69l49 4q27 0 59 2q38 0 38 -38q0 -42 -17 -46q-16 -4 -49 -4t-56.5 -10.5t-33.5 -30.5q-14 -27 -15 -117v-242q-209 -100 -473 -100q-276 0 -448 166 q-187 180 -187 512z" />
<glyph unicode="H" horiz-adv-x="1591" d="M103 78q13 4 49 4t63 13.5t39 35.5q18 33 18 109v813q0 115 -57 143q-27 14 -62.5 14t-49 4.5t-14.5 43.5v3q0 38 36 37q98 -6 231 -6t267 6q37 0 35.5 -39.5t-14.5 -44t-49 -4.5t-62.5 -13t-38.5 -36q-18 -35 -19 -108v-363h643v363q0 115 -57 143q-27 14 -62.5 14 t-50 4.5t-15.5 44t36 39.5q131 -6 266 -6t233 6q36 0 36 -37v-3q-1 -40 -15 -44t-49 -4t-61.5 -13t-39.5 -36q-20 -33 -20 -108v-813q0 -115 59 -146q27 -12 62 -12t49 -4t15 -44v-2q0 -38 -36 -38q-98 6 -233 6t-266 -6q-37 0 -36 40t15.5 44t50 4t62 13.5t39.5 35.5 q18 33 18 109v362h-643v-362q0 -117 57 -146q27 -12 63 -12t49 -4t14 -44t-35 -40q-133 6 -266.5 6t-231.5 -6q-36 0 -36 38q0 42 14 46z" />
<glyph unicode="I" horiz-adv-x="745" d="M87 1261q0 38 36 37q98 -6 232 -6t268 6q35 0 35 -35q0 -2 -1 -5q-2 -40 -15 -44t-49 -4t-62.5 -13t-38.5 -36q-18 -35 -19 -108v-813q0 -117 57 -146q27 -12 63 -12t49 -4t15 -44q0 -2 1 -4q0 -36 -35 -36q-133 6 -267.5 6t-232.5 -6q-36 0 -36 38v2q1 40 15.5 44t49 4 t61.5 13.5t39 35.5q14 27 20 109v813q-6 82 -18 106q-29 51 -117 51q-20 0 -35 4q-15 5 -15 47z" />
<glyph unicode="J" horiz-adv-x="706" d="M5 -359q-3 11 -3 19q0 24 23 33q205 84 223 401q6 104 6 238v721q0 115 -57 143q-27 14 -63 14t-50 4.5t-15 44t35 39.5q98 -6 232.5 -6t267.5 6q36 0 36 -37q0 -42 -15 -47q-14 -4 -50 -4t-63 -13t-39 -36q-18 -35 -18 -108v-791q0 -561 -404 -655q-5 -1 -9 -1 q-27 0 -37 35z" />
<glyph unicode="K" horiz-adv-x="1433" d="M103 78q13 4 49 4t63 13.5t39 35.5q18 33 18 109v813q0 115 -57 143q-27 14 -62.5 14t-49 4.5t-14.5 43.5v3q0 38 36 37q98 -6 231 -6t267 6q37 0 35.5 -39.5t-14.5 -44t-49 -4.5t-62.5 -13t-38.5 -36q-18 -35 -19 -108v-371q57 14 154.5 100t171.5 168l137 160 q37 40 37 64q0 29 -55 34q-23 2 -26 46v7q0 38 34 37q80 -6 184.5 -6t175.5 3q13 1 24 1q50 0 57 -12q9 -14 7 -39q-4 -37 -39 -37q-9 0 -17 1q-152 0 -290 -138l-332 -346q121 -147 244 -270l275 -279q82 -84 165 -94q16 -2 33 -5t18 -43v-2q0 -38 -36 -38q-98 6 -121 6 h-184l-484 547q-63 74 -133 82v-389q0 -117 57 -146q27 -12 63 -12t49 -4t14 -44t-35 -40q-133 6 -266.5 6t-231.5 -6q-36 0 -36 38q0 42 14 46z" />
<glyph unicode="L" horiz-adv-x="1169" d="M103 78q13 4 49 4t63 13.5t39 35.5q18 33 18 109v813q0 115 -57 143q-27 14 -62.5 14t-49 4.5t-14.5 43.5v3q0 38 34 37q102 -6 234 -6t266 6q37 0 35.5 -39.5t-15.5 -44t-49 -4.5t-61.5 -13t-38.5 -36q-18 -35 -19 -108v-844l4 -43q8 -84 128 -84h11h185q104 4 135 41 q39 49 84 196q14 35 44 36q25 0 60 -23q16 -10 15 -31l-41 -258q-10 -43 -60 -43h-671q-143 0 -246 -6q-34 0 -34 38q0 42 14 46z" />
<glyph unicode="M" horiz-adv-x="1820" d="M86 1264.5q0 33.5 23.5 37t79 3.5t117 -9.5t112.5 -31.5q100 -45 155 -177l353 -790h6l403 995h117q145 0 244 6q36 0 36 -37q0 -42 -16 -47q-14 -4 -49 -4t-61.5 -13t-38.5 -36q-18 -35 -19 -108v-813q0 -117 58 -146q27 -12 61.5 -12t48.5 -4q15 -4 16 -46 q0 -38 -36 -38q-98 6 -232.5 6t-265.5 -6q-37 0 -36 40t14.5 44t49.5 4t62.5 13.5t38.5 35.5q18 33 19 109v813h-7l-421 -1043q-8 -20 -41 -20q-31 0 -43 20l-461 1043h-6l4 -813q0 -117 55 -146q25 -12 60.5 -12t49 -4t15.5 -44t-35 -40q-98 6 -127 6h-110q-53 0 -152 -6 q-37 0 -36 40t14.5 44t49 4t61.5 13.5t38 35.5q16 31 16 109l4 813q0 90 -24 114q-39 37 -90 46.5t-62.5 13.5t-11.5 37.5z" />
<glyph unicode="N" horiz-adv-x="1509" d="M86 1265.5q0 32.5 23.5 36t84 3.5t120 -10.5t106.5 -34.5q80 -41 176 -173l561 -737h6l-4 703q0 117 -53 143q-27 14 -62.5 14t-49 4.5t-15.5 44t35 39.5q98 -6 133 -6h97q40 0 61 2h43q23 2 55 4q36 0 36 -37q0 -42 -15 -47q-13 -4 -49 -4t-61.5 -13t-37.5 -36 q-16 -31 -16 -108l-5 -1033q-4 -27 -47 -26.5t-63 26.5l-772 1033h-6l4 -813q0 -117 55 -146q25 -12 60.5 -12t50 -4t15.5 -44t-36 -40q-33 2 -57 2l-45 4h-43h-100q-46 0 -144 -6q-37 0 -36 40t14.5 44t49 4t61.5 13.5t38 35.5q16 31 16 109l4 813q0 90 -24 114 q-37 37 -90.5 46.5t-63.5 14.5t-10 37.5z" />
<glyph unicode="O" horiz-adv-x="1505" d="M96 629q0 319 213 522q190 182 461 182q133 0 255 -55t208 -148q176 -195 176 -464q0 -317 -217 -523q-195 -184 -442 -184q-293 0 -478 205q-176 195 -176 465zM336 635q0 -395 229 -537q78 -49 184.5 -49t185.5 50.5t130 133.5q100 168 100 433q0 393 -235 532 q-78 47 -184.5 47t-184.5 -49t-127 -133q-98 -162 -98 -428z" />
<glyph unicode="P" horiz-adv-x="1236" d="M102 78q14 4 50 4t63 13.5t39 35.5q18 33 18 109v813q0 115 -57 143q-27 14 -62.5 14t-50 4.5t-15.5 43.5v3q0 38 36 37q98 -6 246 -6h307q379 0 483 -223q29 -59 29 -150.5t-44 -169t-116 -133.5q-152 -115 -310.5 -114.5t-244.5 33.5v-295q0 -117 57 -146 q27 -12 63 -12t50 -4t15 -44t-35 -40q-133 6 -267.5 6t-232.5 -6q-36 0 -36 38q0 42 15 46zM473 616q45 -23 145 -22q211 0 308 164q35 63 35 163.5t-42 160t-100 89.5q-86 45 -217 46q-80 0 -98 -21q-31 -37 -31 -137v-443z" />
<glyph unicode="Q" horiz-adv-x="1509" d="M98 634q0 165 59.5 296t153.5 221q190 182 441 182q299 0 485 -203q176 -195 176 -464q0 -350 -252 -549q-137 -109 -254 -115v-4q100 -10 205 -86l166 -119q139 -100 227 -100q72 8 72 71q0 47 -36 90.5t-99 45.5q-1 5 -1 10q0 24 23 51q29 33 70 33t65.5 -9.5 t47.5 -29.5q57 -45 57 -108.5t-25.5 -106.5t-64.5 -76q-86 -70 -190 -72h-11q-96 0 -167 32q-75 34 -139.5 83t-131 105.5t-127.5 89.5q-94 47 -184 65q-213 49 -324 134t-176.5 226.5t-65.5 306.5zM340 635q0 -397 229 -543q76 -49 182.5 -49t186.5 51t131 137 q100 168 100 435q0 393 -235 532q-78 47 -185.5 47t-185.5 -49t-127 -133q-96 -164 -96 -428z" />
<glyph unicode="R" horiz-adv-x="1374" d="M103 78q13 4 49 4t63 13.5t39 35.5q18 33 18 109v811q0 115 -57 145q-27 14 -62.5 14t-49 4.5t-14.5 43.5v3q0 38 36 37q98 -6 244 -6h352q231 -4 356 -108q111 -88 111 -226q0 -174 -193 -286q-61 -35 -139 -56l158 -247q80 -123 184 -232q61 -49 100 -53t55.5 -7 t17.5 -43v-2q0 -38 -36 -38q-98 6 -127 6h-57q-150 29 -256 178q-57 78 -107 158l-96 156l-26 36q-35 45 -131 45h-60v-333q0 -117 57 -146q27 -12 62 -12t49 -4t15 -44t-35 -40q-133 6 -266.5 6t-231.5 -6q-36 0 -36 38q0 42 14 46zM475 653h180q260 0 295 195 q10 51 10.5 96t-16 95.5t-55.5 89t-104.5 63.5t-137.5 25t-100.5 -7.5t-42.5 -25.5q-29 -37 -29 -137v-394z" />
<glyph unicode="S" horiz-adv-x="1116" d="M100 254q0 74 51 122q48 46 111 46h5q67 -2 88.5 -25.5t21.5 -32t-11.5 -13.5t-25.5 -17q-37 -31 -37 -92q0 -201 240 -201q125 0 207 74q72 66 71.5 154.5t-51.5 144t-127 96.5t-165 78t-167 84q-180 113 -184 295v12q0 264 266 332q82 23 163 22.5t150.5 -14.5 t124.5 -45q125 -70 125 -199q0 -74 -50 -122q-48 -46 -111 -46h-5q-67 2 -88.5 25.5t-21.5 32t15.5 13.5t33.5 17q49 33 49 101.5t-59.5 110.5t-137 42t-125.5 -17.5t-79 -43.5q-59 -55 -59.5 -136t40.5 -128t128 -94.5t182.5 -88.5t175.5 -94q178 -121 178 -325 q0 -154 -141 -261q-137 -102 -338 -102q-443 0 -443 295z" />
<glyph unicode="T" horiz-adv-x="1228" d="M53 954l6 289q0 49 56 49h1001q53 0 53 -49l9 -289q0 -41 -52 -41q-61 0 -69 37q-20 143 -51 189q-47 74 -150 78h-139v-977q0 -117 57 -146q27 -12 61.5 -12t49 -4t15.5 -44t-36 -40q-98 6 -232 6t-265 -6q-37 0 -36 40t14 44t49 4t62.5 13.5t39.5 35.5q18 33 18 109 v977h-141q-102 -4 -133 -52q-43 -68 -66 -215q-8 -37 -64.5 -37t-56.5 41z" />
<glyph unicode="U" horiz-adv-x="1474" d="M56 1261q0 38 36 37q98 -6 231.5 -6t266.5 6q37 0 36 -37.5t-11.5 -44t-46.5 -6.5t-63.5 -13t-41.5 -34q-20 -33 -21 -110v-639q0 -334 326 -334q274 0 330 194q16 55 16 111v539q0 197 -21.5 234.5t-53 44.5t-67.5 7t-50.5 4.5t-15.5 44t36 39.5q98 -6 229.5 -6t229.5 6 q36 0 36 -35v-2q-1 -38 -11.5 -44.5t-47.5 -6.5t-70.5 -6t-50.5 -33q-29 -43 -28 -235v-571q0 -199 -168 -312q-139 -94 -294 -94t-248 34t-154 89q-125 113 -125 272v699q0 115 -58 143q-27 14 -62.5 14t-48.5 4q-15 5 -15 47z" />
<glyph unicode="V" horiz-adv-x="1327" d="M18 1262.5q0 33.5 24 37t110 3.5q197 -4 282 -216l297 -798h6l283 821q12 34 12 55q0 19 -10 28q-20 17 -67.5 17t-60.5 4.5t-14 44t33 39.5q98 -6 177 -6h98q23 0 43 2h43q23 2 55 4q36 0 36 -37q0 -42 -14 -47q-13 -4 -65 -4q-117 0 -172 -139l-395 -1091h-96 l-373 1019l-25 65q-8 22 -23.5 51.5t-33.5 47.5q-37 39 -82 48.5t-56.5 13.5t-11.5 37.5z" />
<glyph unicode="W" horiz-adv-x="1912" d="M16 1262.5q0 33.5 23.5 37t110.5 3.5q197 -4 282 -216l234 -749h8l250 954h106l334 -954h6l232 772q8 32 7 52q0 22 -8 31q-17 17 -64.5 17t-61 4.5t-14.5 44t34 39.5q98 -6 176 -6h98q23 0 43 2h43q23 2 56 4q36 0 36 -37q0 -42 -15 -47q-13 -4 -64 -4q-133 0 -172 -139 l-336 -1091h-96l-332 976l-264 -976h-97l-340 1064q-49 121 -108 152q-23 12 -53.5 18.5t-42 10.5t-11.5 37.5z" />
<glyph unicode="X" d="M30 78q13 4 43.5 4t58.5 7t52 22q37 27 97 110l297 422l-263 412q-88 133 -211 159q-29 6 -40 10.5t-11 38t23.5 37t77 3.5t109.5 -11.5t102 -38.5q80 -43 165 -163l168 -275l203 295q28 40 28 61q0 11 -7 17q-31 23 -82.5 22.5t-64.5 4t-14 44t34 39.5q98 -6 176 -6h102 q23 0 45 2h49q25 2 58 4q37 0 36 -39.5t-14.5 -44t-44.5 -4.5t-59.5 -7t-52.5 -23q-35 -23 -95 -109l-239 -340l356 -508q35 -51 77 -96t87 -45t58.5 -4t14.5 -44v-2q0 -38 -34 -38q-98 6 -231.5 6t-264.5 -6q-37 0 -36 40t15.5 44t55.5 4t57 31q6 11 6 23q0 21 -18 46 l-262 375l-262 -375q-24 -36 -24 -58q0 -33 50 -38q29 -4 57.5 -4t42 -4t14.5 -44t-34 -40q-98 6 -176 6h-100h-49l-47 -4q-25 0 -58 -2q-36 0 -36 38q1 42 15 46z" />
<glyph unicode="Y" horiz-adv-x="1271" d="M8 1262.5q0 33.5 23.5 37t77 3.5t110.5 -10.5t105 -35.5q92 -47 155.5 -162.5t111.5 -219t107 -213.5h7l227 448q21 41 21 61q0 12 -7 17q-27 23 -77 22.5t-63 4t-14 44t33 39.5q98 -6 176 -6h101q25 0 49 2h47q25 2 57 4q36 0 36 -37q0 -42 -14 -47q-13 -4 -65 -4 q-111 0 -186 -139l-231 -436l-25 -51q-31 -61 -31 -146v-198q0 -117 58 -146q27 -12 62.5 -12t49 -4t14.5 -44t-34 -40q-98 6 -233.5 6t-266.5 -6q-37 0 -36 40t15.5 44t49.5 4t61.5 13.5t38.5 35.5q18 33 19 109v256q0 25 -41 110q-145 299 -179 361l-47 88 q-72 129 -211 159q-29 6 -40 10.5t-11 38z" />
<glyph unicode="Z" horiz-adv-x="1271" d="M87 78q13 4 36.5 4t42 4t35.5 16q29 18 73 103l459 850q40 86 40 116q0 8 -3 13q-20 27 -117 26h-223q-102 -4 -133 -41q-43 -53 -86 -196q-10 -33 -38 -33q-5 0 -10 1q-36 7 -50.5 18.5t-12.5 31.5l41 258q10 43 60 43h702q119 0 252 6q36 0 36 -37v-3q-1 -40 -14.5 -43 t-43 -5t-58 -17t-50 -36.5t-38.5 -48.5l-477 -903q-15 -35 -15 -60q0 -35 29 -51q25 -12 78 -12h242q104 4 135 41q43 53 86 196q10 33 38 33q5 0 10 -1q36 -7 50.5 -18t12.5 -32l-41 -258q-8 -43 -60 -43h-723q-147 0 -206 -3q-10 -1 -19 -1q-41 0 -48.5 12t-7.5 31 q0 34 16 39z" />
<glyph unicode="[" horiz-adv-x="696" d="M158 -309v1663q0 123 65 133q25 4 62 4h356q47 0 47 -44t-47 -44h-309q-20 0 -21 -25v-1712q0 -25 21 -24h309q47 0 47 -44t-47 -44h-356q-78 0 -97 20q-30 31 -30 117z" />
<glyph unicode="\" horiz-adv-x="806" d="M70 1380q-4 20 10 39t35 23q51 10 69 -39l553 -1743q8 -49 -45 -59q-49 -10 -65 37z" />
<glyph unicode="]" horiz-adv-x="696" d="M8 -402q0 44 47 44h310q20 0 20 24v1712q0 25 -20 25h-310q-47 0 -47 44t47 44h357q78 0 96 -21q31 -31 31 -116v-1663q0 -123 -66 -133q-25 -4 -61 -4h-357q-47 0 -47 44z" />
<glyph unicode="^" horiz-adv-x="1034" d="M82 848l383 614q18 29 54 29t54 -29l381 -614q7 -14 8 -26q0 -14 -11 -23q-19 -18 -42 -21h-10q-41 0 -59 29l-322 524l-321 -524q-15 -31 -47 -31h-8q-38 4 -58 24q-11 10 -11 23q0 11 9 25z" />
<glyph unicode="_" horiz-adv-x="1368" d="M168 -196.5q0 55.5 47 55.5h938q47 0 47 -55.5t-47 -55.5h-938q-47 0 -47 55.5z" />
<glyph unicode="`" horiz-adv-x="577" d="M88 1372q12 37 47 55q23 12 44 13q41 0 69 -49l153 -281q10 -17 10 -31q0 -22 -24 -37q-14 -8 -27 -8q-25 0 -49 27l-209 244q-18 21 -18 44q0 11 4 23z" />
<glyph unicode="a" horiz-adv-x="1026" d="M70 206q0 87 35.5 138t91 84t124 51.5t135 27.5t123 12t89.5 7v162q0 205 -211 205q-59 0 -108.5 -37t-49.5 -84t10 -66.5t22.5 -31.5t23 -20.5t10.5 -14.5t-24 -26.5t-77 -20.5t-87 47t-34 104q0 158 209 199q57 10 117 10q379 0 379 -299v-477q0 -72 55 -106 q20 -14 51 -14.5t31 -32.5q0 -47 -94 -47.5t-153.5 43.5t-69.5 122q-66 -117 -250 -155q-51 -10 -99.5 -10.5t-94.5 19t-81 52.5q-73 72 -73 159zM276 263q0 -83 37 -130t92.5 -47t102.5 20.5t82 55.5q78 74 78 188v115q-209 -27 -275 -59q-117 -60 -117 -143z" />
<glyph unicode="b" horiz-adv-x="1148" d="M6 1380q0 37 33 45q123 18 188 41q68 23 93 23q8 0 12 -2q14 -10 14 -35v-618h6q119 119 283 118q184 0 307 -133q123 -135 123 -348q0 -207 -143 -352q-137 -143 -322.5 -143.5t-318.5 100.5h-11q-8 -16 -14 -33.5t-14 -34.5q-18 -37 -43 -37q-39 0 -39 41v1250 q0 86 -105 86q-18 0 -33.5 4.5t-15.5 27.5zM346 215q18 -98 137 -152q41 -18 98.5 -18t108.5 28.5t88 82.5q78 115 78 307q0 256 -160 352q-55 35 -159.5 35t-190.5 -94v-541z" />
<glyph unicode="c" horiz-adv-x="972" d="M86 463q2 109 40 197t103 151q131 133 336 141q272 0 318 -170q6 -28 6 -52q0 -39 -17 -66q-49 -84 -109.5 -84t-85 22.5t-24.5 28.5t10.5 14t24.5 23q33 37 33 91t-47 84.5t-107 33.5q-274 0 -274 -406q0 -270 166 -365q53 -29 131 -28q152 0 252 153q14 20 35 9 q31 -17 31 -37q0 -9 -7 -19q-68 -98 -167 -153.5t-204 -55.5q-317 0 -415 289q-29 84 -29 185v14z" />
<glyph unicode="d" horiz-adv-x="1187" d="M84 465q0 197 133 338q141 150 308 149.5t270 -57.5h6v367q0 86 -105 86q-18 0 -33.5 5t-15.5 27q0 37 33 45q123 18 188 41q68 23 93 23q8 0 12 -2q14 -10 14 -35v-1264q0 -121 160 -120q35 0 35 -31t-35 -37l-326 -23q-18 0 -18 41v82h-6q-125 -125 -283 -125 q-176 0 -301 136q-129 141 -129 354zM295 455q0 -252 160 -344q55 -33 152.5 -33t193.5 102v541q-33 100 -137 143q-37 14 -91.5 14.5t-105.5 -28.5t-90 -84q-82 -112 -82 -311z" />
<glyph unicode="e" horiz-adv-x="1028" d="M84 469q0 188 123 330q131 154 334 153q270 0 360 -207q30 -71 30 -146q0 -64 -37 -85q-40 -23 -103 -22h-498q0 -295 176 -383q61 -31 147 -31t147.5 37t119.5 129q16 20 39 6q29 -19 29 -40q0 -10 -7 -20q-135 -215 -381 -215q-231 0 -358 146q-121 137 -121 348z M293 569h334q102 0 110 86q0 152 -110 207q-37 18 -114 18.5t-144.5 -82t-75.5 -229.5z" />
<glyph unicode="f" horiz-adv-x="702" d="M60 925q13 3 34 3h144v76q0 330 215 440q79 40 160 40q47 0 96 -14q96 -29 132 -85t36 -108t-35 -100.5t-89.5 -48.5t-78 21.5t-23.5 29t11.5 15.5t23.5 23q35 45 35 90t-34 76.5t-93 31.5t-95 -42t-53 -101q-20 -74 -20 -232v-112h201q20 0 34.5 -3t15.5 -40t-34 -37 h-217v-688q0 -88 104 -88q20 0 32.5 -3t14 -39t-29.5 -36q-108 7 -215 7t-213 -7q-33 0 -32 36t13.5 39t32.5 3q104 0 105 88v688h-158q-34 0 -34 35q0 39 14 42z" />
<glyph unicode="g" horiz-adv-x="1071" d="M55 -201q0 68 43 120t91.5 52t67.5 -7t34 -17q31 -23 31 -32t-9.5 -17.5t-21.5 -22.5q-31 -35 -31 -109.5t70.5 -105.5t220.5 -31q303 0 303 215q0 127 -205 144q-59 6 -123 8q-178 2 -247 14q-164 31 -164 166q0 76 53 132.5t164 56.5q-219 82 -219 276q0 133 108 223 q115 90 273.5 90t240.5 -41l281 54h5q19 0 26 -15q8 -16 8 -64t-31 -48l-203 8v-4q84 -84 84 -179.5t-32.5 -154.5t-86.5 -100q-113 -84 -262 -84h-90q-203 0 -203 -88q0 -72 119 -80l281 -8q406 0 405 -254q0 -248 -323 -320q-100 -23 -224 -22q-434 -1 -434 245zM295 642 q0 -122 60.5 -189.5t153.5 -67.5t152.5 66.5t59.5 187.5t-60.5 186.5t-153.5 65.5t-152.5 -63.5t-59.5 -185.5z" />
<glyph unicode="h" horiz-adv-x="1206" d="M47 1380q0 39 33 47q123 18 188 41q68 23 93 23q8 0 12 -2q14 -10 14 -35v-659h4l62 57q113 100 261 100t229 -84t81 -221v-487q0 -88 104 -88q20 0 33 -3t14 -42q0 -34 -30 -33q-108 7 -215 7t-213 -7q-33 0 -32 36t13.5 39t32.5 3q104 0 105 88v485q0 96 -45 133 q-72 61 -137.5 61.5t-108.5 -15t-76 -38.5q-61 -43 -82 -88v-538q0 -88 105 -88q20 0 32.5 -3t13.5 -39t-30 -36q-106 7 -213.5 7t-214.5 -7q-33 0 -32 36t14.5 39t44 3t52 11t29.5 32q12 23 13 96v1051q0 88 -105 88q-18 0 -33.5 5t-15.5 25z" />
<glyph unicode="i" horiz-adv-x="608" d="M70 852q0 37 32 45q123 18 189 41q68 23 92 23q8 0 12 -3q14 -10 15 -34v-764q0 -88 106 -88q18 0 32 -3t14 -41q0 -34 -32 -34q-88 6 -215 6q-123 0 -176 -3t-61 9t-6 36t14 27t33 3q104 0 104 88v573q0 86 -104 86q-18 0 -33.5 5t-15.5 28zM160 1313q0 39 9 60.5 t28 39.5q47 43 91 43t64.5 -7t36.5 -24q41 -35 41 -87t-35 -90t-79 -38t-67.5 6.5t-43.5 20.5q-45 37 -45 76z" />
<glyph unicode="j" horiz-adv-x="544" d="M-31 -393q-5 14 -4 24q0 20 19 27q139 57 184 211q33 119 33 399v465q0 86 -105 86q-18 0 -33.5 5t-15.5 28q0 37 33 45q123 18 188 41q68 23 93 23q8 0 12 -3q14 -10 14 -34v-721q0 -252 -62.5 -368t-135 -172t-135.5 -72q-43 -10 -60 -10q-8 0 -10 2q-9 8 -15 24z M104 1313q0 39 9.5 60.5t29.5 39.5q45 43 89 43t64.5 -7t39.5 -24q39 -35 39 -87t-35 -90t-79 -38t-67.5 6.5t-41.5 20.5q-48 37 -48 76z" />
<glyph unicode="k" horiz-adv-x="1161" d="M47 1380q0 37 33 45q123 18 188 41q68 23 93 23q8 0 12 -2q14 -10 14 -35v-936q92 20 148 76l172 176q45 50 45 64q0 25 -73 25q-10 0 -22 -1q-23 4 -23.5 41t32.5 37q72 -6 166 -6t126 2l70 4q33 0 32 -39t-34 -39q-80 0 -129 -28.5t-111 -92.5l-172 -176q25 -33 66 -80 l240 -272q59 -63 99 -97t78 -37t52 -6.5t14 -38t-32 -34.5q-86 6 -142 6h-131l-350 401q-58 58 -111 58h-10v-299q0 -88 105 -88q20 0 32.5 -3t14.5 -39t-31 -36q-106 7 -213.5 7t-214.5 -7q-33 0 -32 36t14.5 39t44 3t52 11t29.5 32q12 23 13 96v1051q0 86 -105 86 q-18 0 -33.5 4.5t-15.5 27.5z" />
<glyph unicode="l" horiz-adv-x="585" d="M47 1380q0 39 33 47q123 18 188 41q68 23 93 23q8 0 12 -2q14 -10 14 -35v-1294q0 -88 107 -88q18 0 31 -3q14 -3 15 -41q0 -34 -32 -34q-90 6 -215 6t-213 -6q-33 0 -32 36t14.5 39t44 3t52 11t29.5 32q12 23 13 96v1051q0 88 -105 88q-18 0 -33.5 5t-15.5 25z" />
<glyph unicode="m" horiz-adv-x="1835" d="M70 852q0 37 32 45q133 20 191 41q62 24 87 24q8 0 12 -3q15 -11 16 -35v-129h6l59 57q104 100 281.5 100t251.5 -157h4q121 113 197.5 135t142.5 22q141 0 222 -84t81 -221v-487q0 -88 106 -88q18 0 32 -3t14 -41q0 -34 -31 -34q-90 6 -215 6t-213 -6q-33 0 -32 36 t14 39t44 3t52.5 11t29.5 32q12 23 12 96v434q0 96 -45 133q-72 61 -138 61.5t-107 -15t-70 -38.5q-53 -41 -74 -88v-487q0 -27 -1 -52.5t7 -43.5q18 -43 65.5 -43t60 -3t13.5 -39t-32 -36q-103 7 -207 7l-207 -7q-33 0 -32 36t13.5 39t32.5 3q102 0 99 88v51v434 q0 96 -45 133q-72 61 -137.5 61.5t-106.5 -15t-72 -38.5q-53 -41 -73 -88v-538q0 -88 106 -88q18 0 31.5 -3t14.5 -39t-32 -36q-88 6 -215 6q-123 0 -213 -6q-33 0 -31.5 36t14.5 39t44 3t52.5 11t31.5 32q10 23 10 96v522q0 86 -104 86q-18 0 -33.5 5t-15.5 28z" />
<glyph unicode="n" horiz-adv-x="1226" d="M68 852q0 37 32 45q133 20 191 41q62 24 87 24q8 0 12 -3q15 -11 16 -35v-129h6l61 57q113 100 261.5 100t229 -84t80.5 -221v-487q0 -88 107 -88q18 0 32 -3t14 -41q0 -34 -32 -34q-88 6 -215 6q-123 0 -213 -6q-33 0 -31.5 36t14.5 39t44 3t52.5 11t31.5 32 q10 23 10 96v434q0 96 -45 133q-72 61 -138.5 61.5t-109.5 -15t-73 -38.5q-66 -45 -84 -88v-538q0 -88 106 -88q18 0 31.5 -3t14.5 -39t-32 -36q-90 6 -215 6t-177 -3t-60 9t-6 36t14 27t33 3q104 0 104 88v573q0 86 -104 86q-18 0 -33.5 5t-15.5 28z" />
<glyph unicode="o" horiz-adv-x="1122" d="M84 451q0 227 158 372q139 129 331 129q94 0 182.5 -40t151.5 -105q131 -135 131 -330q0 -225 -157 -373q-141 -129 -320 -129q-205 0 -346 146q-131 135 -131 330zM293 509q0 -134 14.5 -207t44.5 -130q70 -121 209 -121q268 0 268 426q0 276 -145 367q-51 33 -125 33 t-125 -34t-82 -93q-59 -107 -59 -241z" />
<glyph unicode="p" horiz-adv-x="1196" d="M47 852q0 37 33 45q133 20 190 41q62 24 87 24q8 0 13 -3q15 -11 15 -35v-99h6q137 127 291 127q186 0 307 -136t121 -351t-145 -356q-137 -133 -300 -133.5t-270 63.5h-8v-248q0 -104 33 -121.5t62.5 -17.5t43 -3t14.5 -39t-32 -36q-90 6 -215 6t-213 -6q-33 0 -32 36 t14.5 39t43 3t51 11t31.5 30q12 25 13 98v942q0 86 -105 86q-18 0 -33.5 5t-15.5 28zM387 195q37 -96 152 -138q39 -12 102.5 -12t116.5 40t86 101q57 113 57 228.5t-16.5 185.5t-53.5 125q-80 125 -223 125q-119 0 -221 -107v-548z" />
<glyph unicode="q" horiz-adv-x="1144" d="M84 475q0 201 143 340q141 137 330 137q147 0 250 -65q25 -16 45 -27h10q8 14 16.5 34.5t18.5 39.5q25 41 51 41q39 0 39 -41v-1143q0 -106 32 -122.5t62.5 -16.5t42.5 -3q13 -3 14 -41q0 -34 -32 -34q-90 6 -215 6t-213 -6q-31 0 -30 36t13.5 39t42 3t51 11t31.5 30 q12 25 13 98v301h-6q-104 -117 -273 -117q-184 0 -307 136q-129 143 -129 364zM291 455q0 -379 317 -379q98 0 191 96v555q-51 154 -232 154q-121 0 -196 -115q-80 -118 -80 -311z" />
<glyph unicode="r" horiz-adv-x="870" d="M68 852q0 37 32 45q133 20 191 41q62 24 87 24q8 0 12 -3q15 -11 16 -35v-127h6q160 156 278 155q106 0 137 -104q10 -31 10.5 -59.5t-8 -54t-24.5 -46.5q-37 -49 -98 -49q-33 0 -52.5 13.5t-21.5 19.5q0 4 19.5 24.5t19.5 51.5q0 82 -73 81.5t-191 -118.5v-551 q0 -88 106 -88q18 0 31.5 -3t14.5 -39t-32 -36q-90 6 -215 6t-177 -3t-60 9t-6 36t14 27t33 3q104 0 104 88v573q0 86 -104 86q-18 0 -33.5 5t-15.5 28z" />
<glyph unicode="s" horiz-adv-x="907" d="M78 195q0 59 36 96t83 37t70.5 -19.5t23.5 -26t-7.5 -12.5t-17.5 -16q-23 -31 -22.5 -80t54.5 -86t165 -37q205 0 205 160q0 61 -41 94t-102.5 55.5t-133.5 41t-133 51.5q-143 76 -143 229q0 129 118 203q104 68 206 67.5t156 -12.5t97 -37q92 -55 92 -127 q0 -152 -122 -151q-37 0 -60.5 19.5t-23.5 24.5t9 12t19 19q30 28 30 61q0 34 -16 58q-15 23 -40 37q-49 29 -102.5 29t-88.5 -9.5t-61 -25.5q-61 -35 -61.5 -90t14 -84t45.5 -49q45 -33 153.5 -67t163.5 -55.5t94 -49.5q86 -63 86 -155.5t-28.5 -147t-77.5 -93.5 q-112 -87 -270 -86q-70 0 -148 17q-221 47 -221 205z" />
<glyph unicode="t" horiz-adv-x="776" d="M51 885q0 39 29 47q98 18 135 66.5t51 86.5l29 78q10 27 49 27t39 -29l-14 -233l239 14q18 2 24.5 -10t6.5 -51t-25 -39l-229 6v-623q0 -158 119 -157q66 0 92 14q39 17 58 17q12 0 16 -7q18 -27 17 -43q0 -12 -9 -18q-102 -66 -192.5 -66t-133.5 17.5t-78 52.5 q-76 76 -75 215v602l-119 -4q-29 0 -29 37z" />
<glyph unicode="u" horiz-adv-x="1220" d="M35 831q0 37 33 46q123 18 188 41q68 23 93 23q8 0 11 -3q14 -10 15 -35v-620q0 -96 45 -133q72 -61 138.5 -61.5t109.5 15t75 37.5q61 43 82 88v484q0 86 -104 86q-18 0 -33.5 5t-15.5 27q0 37 33 46q123 18 188 41q68 23 92 23q8 0 12 -3q14 -10 15 -35v-708 q0 -121 162 -121q35 0 34.5 -34t-34.5 -40l-330 -23q-18 0 -19 41v115h-4l-61 -55q-113 -102 -261.5 -102.5t-229.5 83.5t-81 222v432q0 86 -104 86q-18 0 -33.5 4.5t-15.5 27.5z" />
<glyph unicode="v" horiz-adv-x="1128" d="M16 901q0 27 20 30q22 3 99 7q9 1 18 0q165 0 250 -184l158 -394q29 -72 57 -129h7l202 537q11 31 11 50q0 17 -9 24q-18 14 -58 14t-52 3t-13 39t27 36q90 -6 158 -6h86q33 0 125 6q30 0 30 -34v-2q-1 -36 -14.5 -39t-56.5 -3q-100 0 -150 -121l-258 -637l-37 -86 q-14 -31 -14 -32h-86q-39 84 -78 182l-149 383q-94 229 -123 258q-43 43 -86 49t-52 9q-12 4 -12 40z" />
<glyph unicode="w" horiz-adv-x="1634" d="M18 901q0 27 20 30q22 3 99 7q9 1 18 0q165 0 251 -184l188 -531h6q14 43 31 105l168 600h98l281 -705h6q20 63 41 142l102 403q5 24 5 40q0 22 -9 32q-16 16 -54 16t-50.5 3t-13.5 39t28 36q90 -6 158 -6h88q35 0 127 6q30 0 29 -34v-2q-1 -36 -14 -39t-58 -3 q-117 0 -148 -121l-227 -755h-121l-260 669l-203 -669h-121l-262 727q-49 111 -102 133q-23 10 -51.5 14t-37.5 7q-12 4 -12 40z" />
<glyph unicode="x" horiz-adv-x="1107" d="M50 69q13 3 38 3t47.5 7t41 22.5t36.5 37.5l45 54q39 43 94 110l113 139l-234 330q-49 63 -102 74.5t-62.5 14.5t-11.5 35t19 34q50 7 94 7q175 0 262 -116q23 -29 59.5 -91t96.5 -140l137 178q36 50 36 66q0 2 -1 4q-8 18 -56.5 18t-60.5 3t-13 39t27 36q86 -6 115 -6 h97q44 0 137 6q31 0 29.5 -36t-14.5 -38t-37 -4t-45.5 -8t-39.5 -21q-33 -23 -74 -73l-184 -234l250 -327q84 -121 164 -121q18 0 31.5 -3t14.5 -39v-2q0 -34 -32 -34q-88 6 -197 6q-129 0 -217 -6q-33 0 -31.5 36t14.5 39t43 3t32 23v3q0 23 -29 62l-160 213l-176 -213 q-34 -44 -34 -63q0 -5 2 -9q11 -16 56.5 -16t57.5 -3t13 -39t-27 -36q-86 6 -115 6h-57h-45q-39 0 -131 -6q-30 0 -30 33q0 39 14 42z" />
<glyph unicode="y" horiz-adv-x="1130" d="M-2 -170q41 53 93 55q6 0 12 1q43 0 61 -14q20 -15 20 -22.5t-15 -22.5t-17 -53q0 -3 -1 -6q0 -35 23 -67q25 -35 72 -35t84 25.5t67 62.5q47 57 105 176q5 16 5 34q0 34 -18 77l-198 516q-88 215 -117 244q-45 45 -88 51t-52 9t-11.5 35t19 35t99.5 7q9 1 18 0 q165 0 251 -184l155 -394q29 -72 58 -129h6l200 537q11 31 11 50q0 17 -9 24q-18 14 -58 14t-52 3t-13 39t27 36q88 -6 158 -6h86q33 0 125 6q30 0 30 -34v-2q-1 -36 -14.5 -39t-54.5 -3q-102 0 -152 -121l-292 -719q-14 -35 -15 -36q-172 -426 -407 -426q-143 0 -207 118 q-17 33 -18 77q0 51 24 81z" />
<glyph unicode="z" horiz-adv-x="1028" d="M88 69q12 3 37 3t44 3t34 13q25 18 57 82l283 588q23 45 23 70q0 29 -29 32q-18 2 -48 2h-86q-102 0 -133 -35q-49 -53 -69 -202q-4 -33 -41 -33q-66 0 -66 37l35 252q6 47 47 47h469q166 0 258 6q33 0 32 -36t-14.5 -39t-37 -3t-43 -3t-33.5 -13q-27 -16 -59 -82 l-281 -588q-23 -45 -23 -71q0 -29 29 -31q18 -2 47 -2h115q102 0 133 32q49 55 70 205q4 33 41 33q66 0 65 -37l-35 -252q-6 -47 -47 -47h-493q-176 0 -263 -6q-32 0 -31 34q0 38 13 41z" />
<glyph unicode="{" horiz-adv-x="585" d="M35 520q0 35 22 39q156 14 170 121q4 29 4 67.5t-2 100.5l-8 123q-6 145 -6 233q0 272 289 285q16 0 27.5 -2t13.5 -23q0 -37 -31 -45q-98 -18 -125 -59q-35 -55 -35 -135l29 -457q0 -207 -178 -244v-8q178 -39 178 -244l-29 -450q0 -127 72 -170q29 -18 61.5 -25.5 t43.5 -10.5q14 -4 14 -29q0 -34 -35 -33q-295 12 -295 274q0 96 6 201l8 164q2 61 2 100t-4 67.5t-20 53.5q-37 57 -150 67q-22 4 -22 39z" />
<glyph unicode="|" horiz-adv-x="434" d="M160 -399v1843q0 47 57 47t57 -47v-1843q0 -47 -57 -47t-57 47z" />
<glyph unicode="}" horiz-adv-x="585" d="M54 -384q11 3 44 10t62.5 25.5t44.5 45.5q27 45 26 125l-28 450q0 205 178 244v8q-178 37 -178 244l28 457q0 123 -75 166q-31 18 -66 26q-49 8 -49 39q2 29 13.5 31t27.5 2q289 -12 289 -285q0 -51 -2 -110l-9 -123q-6 -147 -6 -204.5t3 -86.5t20 -53q41 -57 151 -68 q23 -4 23 -39t-23 -39q-160 -16 -172 -121q-2 -29 -2 -67.5t2 -99t5 -122.5l7 -125q3 -62 3 -118q0 -262 -295 -274q-36 0 -36 27q0 31 14 35z" />
<glyph unicode="~" horiz-adv-x="1138" d="M94 397q14 41 42 92.5t67 94.5q88 98 173 98t142 -20.5t113 -47.5q139 -66 188 -65q94 0 150 133q13 29 39 29q7 0 16 -2q30 -8 30 -34q0 -8 -3 -18q-12 -41 -40 -92t-67 -94q-85 -92 -203 -92q-102 0 -229 70q-117 63 -178.5 63t-94 -42t-53.5 -81q-27 -52 -50 -52 q-3 0 -7 1q-38 14 -38 42q0 8 3 17z" />
<glyph unicode="&#xa1;" horiz-adv-x="495" d="M117 824.5q0 56.5 36.5 92t94 35.5t94.5 -35.5t37 -92t-37 -94.5t-94.5 -38t-94 38t-36.5 94.5zM137 -240q0 135 23 306q39 315 39 409q0 29 49 29t49 -29q0 -94 22 -264q39 -315 39 -451q0 -240 -110.5 -240t-110.5 240z" />
<glyph unicode="&#xa2;" horiz-adv-x="1003" d="M90 465q6 274 229 412q70 43 150 61v55q0 51 44 51t44 -51v-43l14 2q272 0 318 -170q6 -28 6 -52q0 -39 -16 -66q-49 -84 -109.5 -84t-85.5 22.5t-25 28.5t10.5 14t22.5 23q35 37 35 91t-47 84.5t-107 33.5h-16v-799h27q164 0 264 153q14 20 37 9q29 -17 29 -36 q0 -9 -7 -20q-141 -199 -350 -207v-83q0 -51 -44 -51.5t-44 51.5v86q-180 23 -279.5 151.5t-99.5 333.5zM299 471q0 -276 170 -367v754q-170 -63 -170 -387z" />
<glyph unicode="&#xa3;" horiz-adv-x="1116" d="M90 55q0 51 41 68q182 61 182 371h-108q-39 0 -39 36q0 39 37 43h110l-14 197q0 166 107.5 277.5t277.5 111.5q160 0 248 -82q57 -52 57 -130q0 -14 -2 -29q-12 -76 -56 -104t-86 -28t-66.5 22.5t-24.5 29t10 14.5t22 23q35 37 35 90t-42 84.5t-84 32.5h-9q-37 0 -66 -7 q-34 -8 -65 -31q-74 -57 -74 -184l8 -287h293q37 -4 37 -43q0 -37 -39 -36h-291q0 -219 -198 -349h620q41 0 70 -9t29 -62q0 -74 -72 -74h-807q-41 0 -41 55z" />
<glyph unicode="&#xa4;" horiz-adv-x="1245" d="M141 989q26 31 49 31q13 0 25 -10l139 -142q115 98 267 99q143 0 235 -70l35 -29l139 142q17 15 31 15q13 0 24 -13q25 -30 25 -52q0 -14 -10 -24l-135 -133q92 -125 92 -274.5t-94 -268.5l135 -131q16 -16 16 -31q0 -12 -10 -22q-26 -31 -49 -31q-13 0 -25 10l-139 140 q-127 -98 -272.5 -98.5t-264.5 98.5l-139 -140q-17 -15 -31 -15q-13 0 -24 13q-24 28 -24 49q0 15 11 27l134 131q-92 111 -92.5 268.5t92.5 274.5q-35 31 -68 65l-68 68q-14 14 -14 29q0 12 10 24zM285 532.5q0 -147.5 96 -249.5q100 -102 240 -103q141 0 241 103 q100 104 100.5 249.5t-100.5 245.5q-102 102 -241 103q-141 0 -240 -101q-96 -100 -96 -247.5z" />
<glyph unicode="&#xa5;" horiz-adv-x="1296" d="M76 1107q0 30 21.5 33t99.5 3q193 0 297 -189l204 -374h7l200 393q17 34 17 53q0 15 -11 22q-25 13 -64.5 13t-52 3t-13.5 39t30 36q90 -6 156 -6h88q47 0 133 6q32 0 32 -34q0 -38 -14 -41q-12 -3 -55 -3q-98 0 -164 -121l-203 -383q-10 -20 -18 -34.5t-12 -26.5h182 q37 -4 37 -43q0 -37 -39 -37h-199v-125h201q37 -4 37 -43q0 -37 -39 -37h-199v-2q0 -96 51 -125q23 -12 53.5 -12t43 -3t13.5 -39t-30 -36q-95 6 -204.5 6t-233.5 -6q-33 0 -32 36t14.5 39t43 3t53 12t34.5 31q16 27 16 94v2h-199q-39 0 -39 37q0 39 37 43h201v125h-199 q-39 0 -39 37q0 39 37 43h179q-74 150 -113 221l-117 209q-61 115 -184 139q-27 4 -36 8t-9 34z" />
<glyph unicode="&#xa6;" horiz-adv-x="770" d="M76 1244q0 46 34.5 78t82 32t80 -32t32.5 -78t-33.5 -78.5t-81 -32.5t-81 32.5t-33.5 78.5zM465 1244q0 46 35 78t82 32t79.5 -32t32.5 -78t-32.5 -78.5t-81 -32.5t-82 32.5t-33.5 78.5z" />
<glyph unicode="&#xa7;" horiz-adv-x="960" d="M111 827.5q0 163.5 41 252.5t106 145q127 106 322 106q178 -6 229 -145q10 -34 10 -64q0 -32 -12 -59q-43 -90 -105 -96q-15 -1 -27 -2q-40 0 -61 15q-27 19 -30 30q0 4 10 13t20 26q34 45 34 84q0 53 -62 96q-35 22 -77 22q-12 0 -24 -2q-55 -8 -78 -51q-16 -30 -17 -60 q0 -13 3 -27q10 -44 29.5 -79t48.5 -74l129 -182l88 -139q160 -258 160 -459q0 -164 -68 -268q-141 -223 -397 -223q-178 6 -229 145q-10 34 -10 64q0 32 12 59q43 90 104 96q15 1 28 2q40 0 60 -15q27 -19 31 -30q0 -4 -10.5 -13t-20.5 -24q-34 -46 -34 -85q0 -54 63 -95 q34 -25 76 -25q13 0 27 3q58 10 81 61q12 26 12 56q0 28 -11 59q-22 63 -77 138t-112 163l-103 160q-159 258 -159 421.5zM223 918.5q0 -136.5 54.5 -265.5t128.5 -256l147 -245q76 -123 117 -234q59 111 59 244t-57.5 254t-132.5 241l-150 244q-72 123 -104 254 q-62 -100 -62 -236.5z" />
<glyph unicode="&#xa8;" horiz-adv-x="792" d="M104 1245q0 51 38 86t91.5 35t88 -35t34.5 -86t-35.5 -88t-89 -37t-90.5 37t-37 88zM459 1245q0 51 38 86t91 35t88 -35t35 -86t-36 -88t-89.5 -37t-90 37t-36.5 88z" />
<glyph unicode="&#xa9;" horiz-adv-x="1695" d="M96 649q0 307 223 531q221 221 529 221q303 0 528 -221q223 -221 223 -530.5t-223 -530.5q-225 -221 -528 -221q-307 0 -529 221q-223 223 -223 530zM184 649q0 -274 193 -469q193 -197 471 -196.5t471 196.5q193 195 192 469q0 276 -192 469q-197 197 -471.5 197 t-470.5 -197q-193 -193 -193 -469zM471 637q0 186 113 303q111 115 288 115q143 0 230 -74q35 -31 43 -72q4 -22 4 -40q0 -16 -3 -30q-7 -30 -24 -53q-36 -49 -84 -49h-8q-53 4 -70.5 23.5t-17.5 27t9.5 15.5t19.5 20q41 40 41 75q0 33 -37 60q-38 30 -122 30h-5 q-88 -1 -153.5 -89t-65.5 -208t19.5 -181t53.5 -109q76 -98 179 -98q164 0 235 150q14 28 35 28q9 0 20 -6q25 -13 25 -32q0 -8 -4 -17q-98 -199 -340 -199q-158 0 -266 109q-115 115 -115 301z" />
<glyph unicode="&#xaa;" horiz-adv-x="811" d="M86 778.5q0 71.5 43 113.5t104 64q82 31 271 43v109q0 135 -142 135q-39 0 -71.5 -23.5t-32.5 -66.5t45 -76q0 -4 -17.5 -23.5t-57.5 -19.5t-66.5 35t-26.5 77t21.5 70.5t56.5 45.5q66 35 158 34q268 0 268 -213v-331q0 -49 24.5 -64.5t49 -15.5t24.5 -29q0 -39 -67 -39 q-135 0 -162 103q-72 -102 -240 -103q-78 0 -130 51.5t-52 123zM240 811q0 -121 88 -121q76 0 128 51.5t52 128.5v80q-137 -18 -202.5 -48t-65.5 -91z" />
<glyph unicode="&#xab;" horiz-adv-x="970" d="M82 481.5q0 22.5 33 50.5q287 270 300 276q4 2 8 1q10 0 20 -8q15 -12 12 -31q-12 -57 -115 -192l-84 -99q86 -123 140.5 -191.5t57.5 -97t-25 -33.5q-3 -1 -6 -1q-26 0 -63 37l-104 106q-63 66 -118.5 113t-55.5 69.5zM492 481.5q0 22.5 32 50.5q287 270 300 276 q4 2 8 1q10 0 21 -8q12 -10 12 -23q0 -30 -27.5 -75.5t-87.5 -124.5l-84 -99q86 -123 140 -191.5t57 -97t-24 -33.5q-3 -1 -7 -1q-26 0 -62 37l-104 106q-63 66 -118.5 113t-55.5 69.5z" />
<glyph unicode="&#xac;" horiz-adv-x="1294" d="M139 537q0 20 12.5 39.5t32.5 19.5h840h11q67 0 90 -25q26 -27 26 -114v-250q0 -47 -60.5 -47t-60.5 47v254q0 25 -20 24h-826q-45 1 -45 52z" />
<glyph unicode="&#xad;" horiz-adv-x="933" d="M127 483.5q0 55.5 47 55.5h586q47 0 47 -55.5t-47 -55.5h-586q-47 0 -47 55.5z" />
<glyph unicode="&#xae;" horiz-adv-x="1695" d="M96 647q0 307 223 531q221 221 529 221q303 0 528 -221q223 -221 223 -530.5t-223 -530.5q-225 -221 -528 -221q-307 0 -529 221q-223 223 -223 530zM184 647q0 -274 193 -471q193 -195 471 -194.5t471 194.5q193 197 192 471q0 276 -192 469q-197 197 -471.5 197 t-470.5 -197q-193 -193 -193 -469zM477 281q2 27 10.5 30.5t31 3.5t35.5 6.5t19 18.5q8 12 15 53v494q-8 55 -29.5 66.5t-42 11.5t-29 4t-9.5 33t32 29h2q35 -1 70 -1h276q215 -6 268 -133q14 -37 14.5 -88t-51 -108.5t-143.5 -84.5l103 -153q86 -127 129 -139 q14 -4 32.5 -7.5t28.5 -6.5q11 -3 11 -36q0 -29 -27 -28h-60q-16 0 -61 8q-76 12 -128 82t-81 115l-57 94q-31 43 -88 43h-27v-187q0 -33 10 -59.5t55 -26.5t45 -34.5t-35.5 -32.5t-72.5 2h-124q-52 0 -87 -2t-35 33zM721 653h100q172 0 172 160q0 106 -100 141 q-32 13 -76 13h-13q-52 -2 -67.5 -18.5t-15.5 -71.5v-224z" />
<glyph unicode="&#xaf;" horiz-adv-x="1236" d="M102 1550.5q0 55.5 48 55.5h937q47 0 47.5 -55.5t-47.5 -55.5h-937q-48 0 -48 55.5z" />
<glyph unicode="&#xb0;" horiz-adv-x="829" d="M76 953.5q0 99.5 30.5 158.5t80 100t109.5 62.5t128 21.5t130 -25.5t108 -66.5q94 -88 94 -188.5t-32 -159.5t-81 -100q-104 -84 -204.5 -84t-163 25.5t-107.5 68.5q-92 88 -92 187.5zM236 984q0 -249 180 -249q178 0 178 258q0 166 -94 219q-35 20 -84 21 q-180 0 -180 -249z" />
<glyph unicode="&#xb1;" horiz-adv-x="1200" d="M94 55.5q0 55.5 47 55.5h918q47 0 47 -55.5t-47 -55.5h-918q-47 0 -47 55.5zM94 540.5q0 55.5 45 55.5h398v385q0 23 20.5 37t44 14t44 -14t20.5 -37v-385h395q45 0 45 -55.5t-45 -55.5h-395v-270q0 -23 -20.5 -37t-44 -14t-44 14.5t-20.5 36.5v270h-398q-45 0 -45 55.5z " />
<glyph unicode="&#xb2;" horiz-adv-x="776" d="M98 596q0 51 59.5 89t117 79t106.5 90q113 113 113 244t-129 131q-49 0 -82 -24.5t-33 -55.5t7 -43t15.5 -20.5t15.5 -14.5t7 -14t-20.5 -25.5t-51.5 -17.5q-104 0 -104 102q0 131 170 170q45 10 91 10t93 -12t84 -39q86 -57 86 -152.5t-41 -154.5t-100.5 -107.5 t-127 -90.5t-122.5 -85h354q29 0 52.5 -7t23.5 -52q0 -57 -59 -57h-467q-58 0 -58 57z" />
<glyph unicode="&#xb3;" horiz-adv-x="735" d="M94 672q0 109 103 108q37 0 55 -20.5t16 -30.5t-23.5 -28.5t-21.5 -41.5q0 -84 127 -84q59 0 100.5 36t41.5 122q0 141 -136 150h-53q-29 0 -29 37q0 39 29 38h53q51 6 81 48.5t30 99.5q0 123 -113.5 123t-113.5 -84q0 -33 24.5 -51.5t24.5 -26.5t-21.5 -24.5 t-63.5 -16.5t-68.5 30.5t-26.5 75t21.5 75t57.5 50.5q68 39 139.5 39t118 -9t82.5 -32q82 -49 82 -159.5t-133 -171.5q168 -33 168 -189q0 -229 -299 -229q-162 0 -227 88q-25 33 -25 78z" />
<glyph unicode="&#xb4;" horiz-adv-x="452" d="M84 1110l154 281q29 49 69 49q20 0 43 -13q35 -18 47 -55q4 -12 4 -23q0 -24 -18 -44l-209 -244q-24 -26 -48 -27q-14 0 -28 8q-24 14 -24 37q0 14 10 31z" />
<glyph unicode="&#xb5;" horiz-adv-x="1214" d="M184 -115v998q0 53 93.5 53t93.5 -53v-600q0 -96 45 -133q72 -61 138.5 -61.5t109.5 15t75 37.5q61 43 82 88v654q0 53 93.5 53t93.5 -53v-697q0 -129 104 -129q31 0 31 -32q0 -47 -92.5 -47.5t-151.5 41.5t-76 114h-6q-111 -119 -182.5 -137.5t-134.5 -18.5 q-152 0 -193 113h-4v-231q0 -170 70 -195q20 -6 53 -6t62.5 18.5t39 40t7 41t-8.5 33.5t-11 23.5t-5 13.5q4 8 30.5 19.5t59.5 -2t50.5 -37t21.5 -54.5q3 -19 3 -36q0 -86 -85 -132q-74 -38 -139 -38q-32 0 -62 10q-90 29 -124 60.5t-52 74.5q-29 69 -29 192z" />
<glyph unicode="&#xb6;" horiz-adv-x="1110" d="M117 859.5q0 101.5 24.5 174t87.5 129.5q139 129 435 129h325q23 0 41 -4q19 -4 20 -51q0 -43 -42 -43h-226v-1022q0 -317 -174 -442q-65 -45 -146 -45h-7q-197 8 -248 147q-10 34 -10 64q0 32 12 59q43 90 104 96q15 1 28 2q40 0 60 -15q27 -19 31 -30q0 -4 -10 -13 t-21 -24q-34 -46 -33 -85q0 -54 62 -95q36 -26 76 -26q10 0 20 2q51 8 77 60t38 120q16 92 16 266v238q-23 -1 -44 -1q-317 0 -445 222q-51 86 -51 187.5z" />
<glyph unicode="&#xb7;" horiz-adv-x="483" d="M111 556q0 56 36.5 93t93 37t94.5 -37t38 -93t-38 -91t-94.5 -35t-93 35t-36.5 91z" />
<glyph unicode="&#xb8;" horiz-adv-x="542" d="M66 -379q0 47 42 47t81.5 1t72.5 7q72 16 72 66q0 53 -117 61q-33 6 -33 47v150h101v-84q131 0 182 -76q16 -27 16 -67q0 -199 -377 -199q-40 0 -40 47z" />
<glyph unicode="&#xb9;" horiz-adv-x="686" d="M98 575q2 25 11.5 29t40 4t61.5 2t49 15q35 23 35 104v299q1 13 0 24q0 68 -21 83q-29 23 -135 22q-33 0 -33 36t11.5 41t38 5t61.5 7t66.5 16.5t57.5 19.5l42 16q7 3 14 3q10 0 20 -5q17 -8 17 -30v-537q0 -82 27 -98q33 -23 91 -23t67.5 -4t11.5 -29q0 -41 -35 -40 q-25 0 -57 2h-64q-33 2 -61 2h-87q-38 0 -71 -1l-66 -2q-33 -1 -57 -1q-35 -1 -35 40z" />
<glyph unicode="&#xba;" horiz-adv-x="833" d="M78 916.5q0 109.5 30.5 176t80 111.5t109.5 68.5t128 23.5t130 -27.5t108 -74.5q94 -98 94 -209t-32 -177.5t-83 -111.5q-102 -92 -202.5 -92t-163 27.5t-105.5 75.5q-94 100 -94 209.5zM238 944q0 -188 94 -252q35 -23 86 -22q178 0 178 291q0 186 -96 249 q-33 23 -82 23q-180 0 -180 -289z" />
<glyph unicode="&#xbb;" horiz-adv-x="968" d="M165 288q54 69 140 191l-84 99q-112 148 -111 200q0 15 9 23q11 9 19 9q3 0 5 -1q10 -4 45 -35l265 -248q27 -23 26.5 -45t-55.5 -69t-119 -113l-127 -129q-22 -22 -38 -22q-9 0 -16 8q-17 18 -17 36q0 23 58 96zM574 288q54 69 141 191l-84 99q-112 148 -112 200 q0 15 9 23q11 9 20 9q3 0 5 -1q10 -4 45 -35l264 -248q27 -23 27 -45t-55.5 -69t-118.5 -113l-127 -129q-22 -22 -38 -22q-9 0 -16 8q-17 18 -17 36q-1 23 57 96z" />
<glyph unicode="&#xbc;" horiz-adv-x="1656" d="M107 575q2 25 11 29t39.5 4t61.5 2t49 15q35 23 35 104v299q1 13 1 24q0 68 -21 83q-29 23 -136 22q-33 0 -32.5 36t11.5 41t37.5 5t61.5 7t67 16.5t57 19.5l42 16q7 3 14 3q10 0 20 -5q17 -8 17 -30v-537q0 -82 27 -98q33 -23 91 -23t67.5 -4t11.5 -29q0 -41 -35 -40 q-25 0 -57 2h-64q-33 2 -61 2h-87q-38 0 -71 -1l-65 -2q-33 -1 -58 -1q-34 -1 -34 40zM526 68l611 1196q19 33 44 33q7 0 15 -3q56 -19 56 -52q0 -9 -5 -19l-614 -1194q-21 -33 -45 -34q-7 0 -15 3q-51 19 -51 51q0 9 4 19zM932 272q0 14 4 23l407 446q20 16 50 17 q59 0 63 -53v-400h76q18 0 30 -5q12 -6 12 -43q0 -34 -34 -34h-84v-205q0 -35 -70 -34q-66 0 -69 34v205h-324q-61 0 -61 49zM1044 305h273v307z" />
<glyph unicode="&#xbd;" horiz-adv-x="1744" d="M102 575q2 25 11.5 29t40 4t61.5 2t49 15q35 23 35 104v299q1 13 1 24q0 68 -21 83q-29 23 -136 22q-33 0 -32.5 36t11.5 41t37.5 5t61.5 7t66.5 16.5t57.5 19.5l42 16q7 3 14 3q10 0 20 -5q17 -8 17 -30v-537q0 -82 27 -98q33 -23 91 -23t67.5 -4t11.5 -29 q0 -41 -35 -40q-25 0 -57 2h-64q-33 2 -61 2h-87q-38 0 -71 -1l-65 -2q-33 -1 -58 -1q-35 -1 -35 40zM522 68l611 1196q19 33 44 33q7 0 15 -3q56 -19 56 -52q0 -9 -5 -19l-614 -1194q-21 -33 -45 -34q-7 0 -15 3q-51 19 -51 51q0 9 4 19zM1077 57q0 51 59.5 89t117 79 t106.5 90q113 113 113 244t-130 131q-49 0 -81.5 -24.5t-32.5 -55t7 -43t15.5 -20.5l15.5 -14.5t7 -14.5t-20.5 -25.5t-51.5 -17.5q-104 0 -104 103q0 131 170 170q45 10 91 10t93 -12.5t84 -36.5q86 -59 86 -154.5t-41 -155t-100.5 -107.5t-127 -90t-122.5 -85h354 q29 0 52.5 -7.5t23.5 -52.5q0 -57 -59 -57h-467q-58 0 -58 57z" />
<glyph unicode="&#xbe;" horiz-adv-x="1744" d="M104 672q0 109 103 108q37 0 55.5 -20.5t16 -30.5t-24 -28.5t-21.5 -41.5q0 -84 127 -84q59 0 100.5 36t41.5 122q0 141 -135 150h-54q-29 0 -28 37q0 39 28 38h54q51 6 80.5 48.5t29.5 99.5q0 123 -113.5 123t-113.5 -84q0 -33 24.5 -51.5t24.5 -26.5t-21.5 -24.5 t-63.5 -16.5t-68.5 30.5t-26.5 75t21.5 75t56.5 50.5q70 39 141.5 39t117.5 -9t83 -32q82 -49 82 -159.5t-134 -171.5q168 -33 168 -189q0 -229 -299 -229q-162 0 -229 88q-23 33 -23 78zM557 68l610 1196q19 33 45 33q7 0 15 -3q56 -19 56 -52q0 -9 -5 -19l-614 -1194 q-21 -33 -46 -34q-7 0 -14 3q-51 19 -51 51q0 9 4 19zM1024 254q0 14 4 22l408 447q20 16 49 16q59 0 63 -53v-399h76q18 0 30 -5q12 -6 12 -43q0 -34 -34 -34h-84v-205q0 -35 -69 -35q-66 0 -70 35v205h-324q-61 0 -61 49zM1137 287h272v307z" />
<glyph unicode="&#xbf;" horiz-adv-x="884" d="M84 -218q0 81 21.5 127t58.5 87q49 55 127 107.5t113.5 79t64.5 55.5q63 63 63 135q0 39 -25.5 63.5t-55.5 24.5q-59 0 -101 -41q-52 -52 -88 -53q-2 0 -4 1q-37 3 -55 28q-6 9 -6 19q0 20 24 44q82 86 197 86q96 0 149 -49q92 -90 92 -203q0 -119 -137 -213l-153 -100 q-129 -86 -129 -177.5t50 -147.5t109.5 -56t94 10t63.5 31q61 43 61 98t-22.5 79.5t-37.5 37t-15 19.5t27.5 30.5t74.5 23.5t80 -19.5t53 -49.5q29 -43 29 -92q0 -21 -5 -42q-17 -73 -65.5 -112t-105.5 -59q-90 -33 -198.5 -33t-178.5 30.5t-107 75.5q-63 74 -63 155z M315 824.5q0 56.5 37 92t94.5 35.5t94.5 -35.5t37 -92t-37 -94.5t-94.5 -38t-94.5 38t-37 94.5z" />
<glyph unicode="&#xc0;" d="M-9 78q13 4 45 4t57.5 13.5t43 36t29.5 50.5l383 905q11 28 11 50q0 50 -60 67q-23 8 -50.5 13.5t-38 10.5t-10.5 37.5t24 36t73 3.5t97 -9.5t85 -31.5q72 -43 129 -177l344 -847q43 -111 78 -134.5t62.5 -23.5t41 -4t14.5 -44v-2q0 -38 -36 -38q-98 6 -223 6t-256 -6 q-37 0 -36 40t14 44t49 4t62.5 9t34.5 28q3 7 3 18q0 33 -23 103l-70 170h-506q-25 -59 -36 -93l-19 -51q-6 -16 -8 -20t-10 -32t-14.5 -58.5t6.5 -46.5q20 -27 90.5 -27t84 -4t14.5 -44t-36 -40q-98 6 -176 6h-100h-43l-45 -4q-25 0 -58 -2q-36 0 -36 38q1 42 15 46z M268 1669q26 30 54 30q9 0 17 -3q36 -12 73 -41t67 -58l158 -151q25 -25 6.5 -46.5t-34 -26.5t-54.5 15.5t-102 59.5l-129 80q-75 49 -75 95q0 23 19 46zM401 498h430l-206 526h-7z" />
<glyph unicode="&#xc1;" d="M-9 78q13 4 45 4t57.5 13.5t43 36t29.5 50.5l383 905q11 28 11 50q0 50 -60 67q-23 8 -50.5 13.5t-38 10.5t-10.5 37.5t24 36t73 3.5t97 -9.5t85 -31.5q72 -43 129 -177l344 -847q43 -111 78 -134.5t62.5 -23.5t41 -4t14.5 -44v-2q0 -38 -36 -38q-98 6 -223 6t-256 -6 q-37 0 -36 40t14 44t49 4t62.5 9t34.5 28q3 7 3 18q0 33 -23 103l-70 170h-506q-25 -59 -36 -93l-19 -51q-6 -16 -8 -20t-10 -32t-14.5 -58.5t6.5 -46.5q20 -27 90.5 -27t84 -4t14.5 -44t-36 -40q-98 6 -176 6h-100h-43l-45 -4q-25 0 -58 -2q-36 0 -36 38q1 42 15 46z M401 498h430l-206 526h-7zM469 1442q231 229 285 248q17 6 31 5q33 0 57 -28q19 -22 19 -45q0 -45 -75 -94l-129 -80q-63 -39 -102 -59q-31 -16 -47 -17q-4 0 -7 1q-15 5 -26 18q-15 17 -15 31q0 11 9 20z" />
<glyph unicode="&#xc2;" d="M-9 78q13 4 45 4t57.5 13.5t43 36t29.5 50.5l383 905q11 28 11 50q0 50 -60 67q-23 8 -50.5 13.5t-38 10.5t-10.5 37.5t24 36t73 3.5t97 -9.5t85 -31.5q72 -43 129 -177l344 -847q43 -111 78 -134.5t62.5 -23.5t41 -4t14.5 -44v-2q0 -38 -36 -38q-98 6 -223 6t-256 -6 q-37 0 -36 40t14 44t49 4t62.5 9t34.5 28q3 7 3 18q0 33 -23 103l-70 170h-506q-25 -59 -36 -93l-19 -51q-6 -16 -8 -20t-10 -32t-14.5 -58.5t6.5 -46.5q20 -27 90.5 -27t84 -4t14.5 -44t-36 -40q-98 6 -176 6h-100h-43l-45 -4q-25 0 -58 -2q-36 0 -36 38q1 42 15 46z M266 1407q-18 16 -18 32q0 17 20 34l260 190q27 18 50.5 18t48.5 -18l260 -190q21 -18 21 -35q0 -16 -19 -31q-8 -7 -23 -7q-36 0 -110 40l-178 94l-148 -76q-104 -57 -144 -57q-13 0 -20 6zM401 498h430l-206 526h-7z" />
<glyph unicode="&#xc3;" d="M-9 78q13 4 45 4t57.5 13.5t43 36t29.5 50.5l383 905q11 28 11 50q0 50 -60 67q-23 8 -50.5 13.5t-38 10.5t-10.5 37.5t24 36t73 3.5t97 -9.5t85 -31.5q72 -43 129 -177l344 -847q43 -111 78 -134.5t62.5 -23.5t41 -4t14.5 -44v-2q0 -38 -36 -38q-98 6 -223 6t-256 -6 q-37 0 -36 40t14 44t49 4t62.5 9t34.5 28q3 7 3 18q0 33 -23 103l-70 170h-506q-25 -59 -36 -93l-19 -51q-6 -16 -8 -20t-10 -32t-14.5 -58.5t6.5 -46.5q20 -27 90.5 -27t84 -4t14.5 -44t-36 -40q-98 6 -176 6h-100h-43l-45 -4q-25 0 -58 -2q-36 0 -36 38q1 42 15 46z M260 1434q-26 10 -26 36q0 30 32 82q78 121 193 121q59 0 125 -41l94 -59q31 -18 55 -19q68 0 137 86q25 29 44.5 17t23.5 -28q1 -4 1 -9q0 -13 -8 -32q-11 -26 -31.5 -57.5t-47.5 -55.5q-61 -57 -121.5 -57.5t-99.5 19t-74 42.5l-63 39q-31 18 -56 18q-66 0 -137 -86 q-21 -22 -41 -16zM401 498h430l-206 526h-7z" />
<glyph unicode="&#xc4;" d="M-9 78q13 4 45 4t57.5 13.5t43 36t29.5 50.5l383 905q11 28 11 50q0 50 -60 67q-23 8 -50.5 13.5t-38 10.5t-10.5 37.5t24 36t73 3.5t97 -9.5t85 -31.5q72 -43 129 -177l344 -847q43 -111 78 -134.5t62.5 -23.5t41 -4t14.5 -44v-2q0 -38 -36 -38q-98 6 -223 6t-256 -6 q-37 0 -36 40t14 44t49 4t62.5 9t34.5 28q3 7 3 18q0 33 -23 103l-70 170h-506q-25 -59 -36 -93l-19 -51q-6 -16 -8 -20t-10 -32t-14.5 -58.5t6.5 -46.5q20 -27 90.5 -27t84 -4t14.5 -44t-36 -40q-98 6 -176 6h-100h-43l-45 -4q-25 0 -58 -2q-36 0 -36 38q1 42 15 46z M260 1558.5q0 51.5 38 86t91 34.5t88 -34.5t35 -86t-36 -88t-89 -36.5t-90 36.5t-37 88zM401 498h430l-206 526h-7zM653 1558.5q0 51.5 38 86t91.5 34.5t88 -34.5t34.5 -86t-35.5 -88t-89 -36.5t-90.5 36.5t-37 88z" />
<glyph unicode="&#xc5;" d="M-9 78q13 4 45 4t57.5 13.5t43 36t29.5 50.5l383 905q11 28 11 50q0 50 -60 67q-23 8 -50.5 13.5t-38 10.5t-10.5 37.5t24 36t73 3.5t97 -9.5t85 -31.5q72 -43 129 -177l344 -847q43 -111 78 -134.5t62.5 -23.5t41 -4t14.5 -44v-2q0 -38 -36 -38q-98 6 -223 6t-256 -6 q-37 0 -36 40t14 44t49 4t62.5 9t34.5 28q3 7 3 18q0 33 -23 103l-70 170h-506q-25 -59 -36 -93l-19 -51q-6 -16 -8 -20t-10 -32t-14.5 -58.5t6.5 -46.5q20 -27 90.5 -27t84 -4t14.5 -44t-36 -40q-98 6 -176 6h-100h-43l-45 -4q-25 0 -58 -2q-36 0 -36 38q1 42 15 46z M356 1661q0 201 226 201q109 0 165 -53.5t56 -145.5t-59.5 -144.5t-163 -52.5t-164 53.5t-60.5 141.5zM401 498h430l-206 526h-7zM489 1666q0 -124 93 -124q53 0 70.5 33t17.5 86q0 129 -90.5 129t-90.5 -124z" />
<glyph unicode="&#xc6;" horiz-adv-x="1847" d="M-5 79q13 5 39.5 3t53.5 11t51 36q45 43 76 111l436 847q10 26 10 47q0 49 -59 62l-50 9q-28 5 -39 10.5t-9 38t24.5 35.5t57.5 3h1054q53 0 54 -49l6 -287q0 -41 -55.5 -41t-63.5 37q-20 143 -51 185q-47 70 -150 73h-274v-520h371q31 -4 30 -47q0 -41 -30 -41h-371 v-387q2 -20 4 -44t16 -44q28 -45 109 -45h14h189q104 4 135 41q39 49 84 196q14 35 44 36q25 0 60 -23q16 -10 15 -31l-41 -258q-10 -43 -60 -43h-676q-143 0 -245 -6q-35 0 -34 40t14.5 44t49 4t62 13.5t39.5 35.5q18 33 18 109v268h-444l-137 -268q-41 -77 -41 -110 q0 -10 4 -15q20 -33 90.5 -33t84 -4t14.5 -44t-36 -40q-98 6 -176 6h-100h-43l-45 -4q-25 0 -58 -2q-36 0 -35 38q0 41 14 47zM502 596h401v614h-47q-4 0 -8 1q-24 0 -35 -12q-12 -13 -29 -42z" />
<glyph unicode="&#xc7;" horiz-adv-x="1308" d="M100 637q0 315 182.5 505.5t487.5 190.5q293 0 410 -151q41 -55 41 -118t-13.5 -102.5t-40.5 -70.5q-59 -68 -155 -68q-82 0 -107 56q-4 12 -4 17t16.5 14.5t34.5 27.5q51 47 51.5 126t-61 133t-164 54t-181.5 -40t-136 -117q-121 -162 -121 -445q0 -250 129 -418 q133 -172 338 -172q209 0 332 195q18 35 51 14q47 -29 46 -54q0 -10 -7 -19q-117 -143 -197 -181q-121 -55 -299 -55q-37 0 -69 4v-47q131 0 180 -76q18 -27 18 -67q0 -199 -377 -199q-41 0 -41 47t42 47t82 1t73 7q72 16 72 66q0 53 -117 61q-33 6 -33 47v132 q-205 55 -330 223q-133 174 -133 432z" />
<glyph unicode="&#xc8;" horiz-adv-x="1216" d="M103 78q13 4 49 4t63 13.5t39 35.5q18 33 18 109v813q0 115 -57 143q-27 14 -62.5 14t-49 4.5t-14.5 43.5v3q0 38 34 37q102 -6 244 -6h643q53 0 53 -49l6 -287q0 -41 -55.5 -41t-63.5 37q-20 143 -51 185q-47 70 -149 73h-275v-520h371q31 -4 31 -47q0 -41 -31 -41h-371 v-387q2 -20 4 -44t17 -44q28 -45 109 -45h13h189q104 4 135 41q39 49 84 196q14 35 44 36q25 0 60 -23q16 -10 15 -31l-41 -258q-10 -43 -60 -43h-675q-143 0 -246 -6q-34 0 -34 38q0 42 14 46zM375 1669q26 30 53 30q9 0 17 -3q36 -12 73 -41t68 -58l157 -151 q14 -14 14 -27q0 -10 -7 -19q-18 -22 -34 -27q-3 -1 -7 -1q-15 0 -47 17q-39 20 -103 59l-129 80q-75 49 -75 95q1 23 20 46z" />
<glyph unicode="&#xc9;" horiz-adv-x="1216" d="M103 78q13 4 49 4t63 13.5t39 35.5q18 33 18 109v813q0 115 -57 143q-27 14 -62.5 14t-49 4.5t-14.5 43.5v3q0 38 34 37q102 -6 244 -6h643q53 0 53 -49l6 -287q0 -41 -55.5 -41t-63.5 37q-20 143 -51 185q-47 70 -149 73h-275v-520h371q31 -4 31 -47q0 -41 -31 -41h-371 v-387q2 -20 4 -44t17 -44q28 -45 109 -45h13h189q104 4 135 41q39 49 84 196q14 35 44 36q25 0 60 -23q16 -10 15 -31l-41 -258q-10 -43 -60 -43h-675q-143 0 -246 -6q-34 0 -34 38q0 42 14 46zM535 1442q231 229 284 248q17 6 31 5q33 0 57 -28q19 -22 20 -45 q0 -45 -75 -94l-129 -80q-63 -39 -102 -59q-31 -16 -48 -17q-4 0 -7 1q-15 5 -25 18q-15 17 -15 31q0 11 9 20z" />
<glyph unicode="&#xca;" horiz-adv-x="1216" d="M103 78q13 4 49 4t63 13.5t39 35.5q18 33 18 109v813q0 115 -57 143q-27 14 -62.5 14t-49 4.5t-14.5 43.5v3q0 38 34 37q102 -6 244 -6h643q53 0 53 -49l6 -287q0 -41 -55.5 -41t-63.5 37q-20 143 -51 185q-47 70 -149 73h-275v-520h371q31 -4 31 -47q0 -41 -31 -41h-371 v-387q2 -20 4 -44t17 -44q28 -45 109 -45h13h189q104 4 135 41q39 49 84 196q14 35 44 36q25 0 60 -23q16 -10 15 -31l-41 -258q-10 -43 -60 -43h-675q-143 0 -246 -6q-34 0 -34 38q0 42 14 46zM332 1407q-18 16 -18 32q0 17 20 34l260 190q27 18 50.5 18t47.5 -18l260 -190 q21 -18 21 -35q0 -16 -19 -31q-8 -7 -23 -7q-36 0 -110 40l-178 94l-147 -76q-104 -57 -145 -57q-12 0 -19 6z" />
<glyph unicode="&#xcb;" horiz-adv-x="1216" d="M103 78q13 4 49 4t63 13.5t39 35.5q18 33 18 109v813q0 115 -57 143q-27 14 -62.5 14t-49 4.5t-14.5 43.5v3q0 38 34 37q102 -6 244 -6h643q53 0 53 -49l6 -287q0 -41 -55.5 -41t-63.5 37q-20 143 -51 185q-47 70 -149 73h-275v-520h371q31 -4 31 -47q0 -41 -31 -41h-371 v-387q2 -20 4 -44t17 -44q28 -45 109 -45h13h189q104 4 135 41q39 49 84 196q14 35 44 36q25 0 60 -23q16 -10 15 -31l-41 -258q-10 -43 -60 -43h-675q-143 0 -246 -6q-34 0 -34 38q0 42 14 46zM326 1558.5q0 51.5 37.5 86t91 34.5t88.5 -34.5t35 -86t-36 -88t-89.5 -36.5 t-90 36.5t-36.5 88zM719 1558.5q0 51.5 38 86t91 34.5t88 -34.5t35 -86t-36 -88t-89 -36.5t-90 36.5t-37 88z" />
<glyph unicode="&#xcc;" horiz-adv-x="745" d="M76 1669q26 30 53 30q9 0 17 -3q36 -12 73 -41t68 -58l157 -151q25 -25 6.5 -46.5t-34 -26.5t-54 15.5t-102.5 59.5l-129 80q-75 49 -75 95q1 23 20 46zM87 1261q0 38 36 37q98 -6 232 -6t268 6q35 0 35 -35q0 -2 -1 -5q-2 -40 -15 -44t-49 -4t-62.5 -13t-38.5 -36 q-18 -35 -19 -108v-813q0 -117 57 -146q27 -12 63 -12t49 -4t15 -44q0 -2 1 -4q0 -36 -35 -36q-133 6 -267.5 6t-232.5 -6q-36 0 -36 38v2q1 40 15.5 44t49 4t61.5 13.5t39 35.5q14 27 20 109v813q-6 82 -18 106q-29 51 -117 51q-20 0 -35 4q-15 5 -15 47z" />
<glyph unicode="&#xcd;" horiz-adv-x="745" d="M87 1261q0 38 36 37q98 -6 232 -6t268 6q35 0 35 -35q0 -2 -1 -5q-2 -40 -15 -44t-49 -4t-62.5 -13t-38.5 -36q-18 -35 -19 -108v-813q0 -117 57 -146q27 -12 63 -12t49 -4t15 -44q0 -2 1 -4q0 -36 -35 -36q-133 6 -267.5 6t-232.5 -6q-36 0 -36 38v2q1 40 15.5 44t49 4 t61.5 13.5t39 35.5q14 27 20 109v813q-6 82 -18 106q-29 51 -117 51q-20 0 -35 4q-15 5 -15 47zM276 1442q231 229 285 248q17 6 31 5q33 0 57 -28q19 -22 20 -45q0 -45 -75 -94l-129 -80q-63 -39 -102 -59q-31 -16 -48 -17q-4 0 -7 1q-15 5 -25 18q-15 17 -15 31 q-1 11 8 20z" />
<glyph unicode="&#xce;" horiz-adv-x="745" d="M53 1407q-18 16 -18 32q0 17 20 34l260 190q27 18 50.5 18t48.5 -18l260 -190q21 -18 21 -35q0 -16 -19 -31q-8 -7 -23 -7q-36 0 -110 40l-178 94l-148 -76q-104 -57 -144 -57q-13 0 -20 6zM87 1261q0 38 36 37q98 -6 232 -6t268 6q35 0 35 -35q0 -2 -1 -5 q-2 -40 -15 -44t-49 -4t-62.5 -13t-38.5 -36q-18 -35 -19 -108v-813q0 -117 57 -146q27 -12 63 -12t49 -4t15 -44q0 -2 1 -4q0 -36 -35 -36q-133 6 -267.5 6t-232.5 -6q-36 0 -36 38v2q1 40 15.5 44t49 4t61.5 13.5t39 35.5q14 27 20 109v813q-6 82 -18 106q-29 51 -117 51 q-20 0 -35 4q-15 5 -15 47z" />
<glyph unicode="&#xcf;" horiz-adv-x="745" d="M47 1558.5q0 51.5 38 86t91 34.5t88 -34.5t35 -86t-36 -88t-89 -36.5t-90 36.5t-37 88zM87 1261q0 38 36 37q98 -6 232 -6t268 6q37 0 34.5 -39.5t-15.5 -44t-49 -4.5t-62.5 -13t-38.5 -36q-18 -35 -19 -108v-813q0 -117 57 -146q27 -12 63 -12t49 -4t15 -44t-34 -40 q-133 6 -267.5 6t-232.5 -6q-36 0 -36 38v2q1 40 15.5 44t49 4t61.5 13.5t39 35.5q14 27 20 109v813q-6 82 -18 106q-29 51 -117 51q-20 0 -35 4q-15 5 -15 47zM440 1558.5q0 51.5 38 86t91.5 34.5t88 -34.5t34.5 -86t-35.5 -88t-89 -36.5t-90.5 36.5t-37 88z" />
<glyph unicode="&#xd0;" horiz-adv-x="1490" d="M103 78q13 4 49 4t63 13.5t39 35.5q18 33 18 109v397h-112q-39 0 -39 44t39 44h112v328q0 115 -57 143q-27 14 -62.5 14t-49 4.5t-14.5 43.5v3q0 38 34 37q102 -6 244 -6h319q303 0 498 -172q207 -182 207 -481q0 -307 -234 -483q-205 -156 -508 -156h-282 q-141 0 -244 -6q-34 0 -34 38q0 42 14 46zM475 215q0 -84 50 -111.5t155 -27.5q463 0 463 563q0 256 -131 416q-137 164 -377 164h-41l-90 -2h-29v-492h236q39 0 39 -44t-39 -44h-236v-422z" />
<glyph unicode="&#xd1;" horiz-adv-x="1509" d="M86 1265.5q0 32.5 23.5 36t84 3.5t120 -10.5t106.5 -34.5q80 -41 176 -173l561 -737h6l-4 703q0 117 -53 143q-27 14 -62.5 14t-49 4.5t-15.5 44t35 39.5q98 -6 133 -6h97q40 0 61 2h43q23 2 55 4q36 0 36 -37q0 -42 -15 -47q-13 -4 -49 -4t-61.5 -13t-37.5 -36 q-16 -31 -16 -108l-5 -1033q-4 -27 -47 -26.5t-63 26.5l-772 1033h-6l4 -813q0 -117 55 -146q25 -12 60.5 -12t50 -4t15.5 -44t-36 -40q-33 2 -57 2l-45 4h-43h-100q-46 0 -144 -6q-37 0 -36 40t14.5 44t49 4t61.5 13.5t38 35.5q16 31 16 109l4 813q0 90 -24 114 q-37 37 -90.5 46.5t-63.5 14.5t-10 37.5zM438 1434q-26 10 -25 36q0 30 33 82q76 121 191 121q59 0 125 -41l94 -59q31 -18 57 -19q66 0 136 86q25 29 44 17t23 -28q1 -4 1 -9q0 -13 -8 -32q-11 -26 -31.5 -57.5t-49.5 -55.5q-59 -57 -119.5 -57.5t-99.5 19t-72 42.5l-65 39 q-31 18 -58 18q-63 0 -135 -86q-21 -22 -41 -16z" />
<glyph unicode="&#xd2;" horiz-adv-x="1505" d="M96 629q0 319 213 522q190 182 461 182q133 0 255 -55t208 -148q176 -195 176 -464q0 -317 -217 -523q-195 -184 -442 -184q-293 0 -478 205q-176 195 -176 465zM336 635q0 -395 229 -537q78 -49 184.5 -49t185.5 50.5t130 133.5q100 168 100 433q0 393 -235 532 q-78 47 -184.5 47t-184.5 -49t-127 -133q-98 -162 -98 -428zM459 1688q26 30 53 29q9 0 17 -3q36 -12 73 -40.5t68 -55.5l157 -154q14 -14 14 -27q0 -10 -7 -19q-18 -22 -34 -26q-3 -1 -7 -1q-16 0 -48 16q-39 20 -102 59l-129 80q-75 49 -75 95q1 24 20 47z" />
<glyph unicode="&#xd3;" horiz-adv-x="1505" d="M96 629q0 319 213 522q190 182 461 182q133 0 255 -55t208 -148q176 -195 176 -464q0 -317 -217 -523q-195 -184 -442 -184q-293 0 -478 205q-176 195 -176 465zM336 635q0 -395 229 -537q78 -49 184.5 -49t185.5 50.5t130 133.5q100 168 100 433q0 393 -235 532 q-78 47 -184.5 47t-184.5 -49t-127 -133q-98 -162 -98 -428zM659 1460q231 229 285 248q17 6 32 6q32 0 56 -26q19 -23 20 -47q0 -46 -75 -95l-129 -80q-63 -39 -103 -59q-31 -16 -47 -16q-4 0 -7 1q-15 5 -25 17q-15 17 -15 31q-1 11 8 20z" />
<glyph unicode="&#xd4;" horiz-adv-x="1505" d="M96 629q0 319 213 522q190 182 461 182q133 0 255 -55t208 -148q176 -195 176 -464q0 -317 -217 -523q-195 -184 -442 -184q-293 0 -478 205q-176 195 -176 465zM336 635q0 -395 229 -537q78 -49 184.5 -49t185.5 50.5t130 133.5q100 168 100 433q0 393 -235 532 q-78 47 -184.5 47t-184.5 -49t-127 -133q-98 -162 -98 -428zM455 1425q-16 15 -17 31q0 17 21 35l260 190q27 18 50.5 18.5t47.5 -18.5l260 -190q21 -18 21 -35q0 -16 -19 -31q-8 -7 -23 -6q-36 0 -110 39l-178 94l-145 -77q-104 -55 -147 -56q-14 0 -21 6z" />
<glyph unicode="&#xd5;" horiz-adv-x="1505" d="M96 629q0 319 213 522q190 182 461 182q133 0 255 -55t208 -148q176 -195 176 -464q0 -317 -217 -523q-195 -184 -442 -184q-293 0 -478 205q-176 195 -176 465zM336 635q0 -395 229 -537q78 -49 184.5 -49t185.5 50.5t130 133.5q100 168 100 433q0 393 -235 532 q-78 47 -184.5 47t-184.5 -49t-127 -133q-98 -162 -98 -428zM430 1452q-26 10 -26 36q0 31 34 85q76 119 191 119q59 0 125 -41l94 -60q31 -18 57 -18q66 0 135 86q25 29 44.5 16.5t23.5 -27.5q1 -4 1 -9q0 -13 -8 -32q-11 -26 -31.5 -57.5t-49.5 -58.5q-59 -55 -119.5 -55 t-99.5 19.5t-72 39.5l-65 41q-31 18 -58 18q-63 0 -135 -86q-21 -22 -41 -16z" />
<glyph unicode="&#xd6;" horiz-adv-x="1505" d="M96 629q0 319 213 522q190 182 461 182q133 0 255 -55t208 -148q176 -195 176 -464q0 -317 -217 -523q-195 -184 -442 -184q-293 0 -478 205q-176 195 -176 465zM336 635q0 -395 229 -537q78 -49 184.5 -49t185.5 50.5t130 133.5q100 168 100 433q0 393 -235 532 q-78 47 -184.5 47t-184.5 -49t-127 -133q-98 -162 -98 -428zM430 1577q0 51 38 86t91 35t88 -35t35 -86t-36 -88t-89 -37t-90 37t-37 88zM823 1577q0 51 38 86t91.5 35t88 -35t34.5 -86t-35.5 -88t-89 -37t-90.5 37t-37 88z" />
<glyph unicode="&#xd7;" horiz-adv-x="1060" d="M109 186l342 338l-342 342q-10 14 -11 27q0 22 26 44q25 21 44 21q13 0 22 -10l340 -342l340 342q12 12 25 12q14 0 31 -14q35 -32 34 -57q0 -12 -8 -23l-342 -342l342 -338q10 -14 11 -27q0 -22 -26 -43q-25 -21 -44 -22q-13 0 -23 10l-340 340l-340 -340 q-12 -12 -25 -11q-14 0 -30 13q-35 32 -34 58q0 11 8 22z" />
<glyph unicode="&#xd8;" horiz-adv-x="1505" d="M96 629q0 319 213 522q190 182 436 182t422 -145l117 131q18 20 32 20q9 0 17 -8q24 -23 24 -40q0 -11 -9 -21l-121 -135q182 -195 182 -469q0 -317 -217 -523q-195 -184 -441.5 -184t-428.5 156l-111 -125q-29 -33 -49 -13q-24 23 -24 41q0 11 9 21l117 133 q-168 189 -168 457zM336 678q0 -223 55 -365l672 756q-115 176 -315 176q-205 0 -314 -182q-98 -162 -98 -385zM430 236q111 -186 318 -187q205 0 317 184q100 168 100 433q0 188 -63 327z" />
<glyph unicode="&#xd9;" horiz-adv-x="1474" d="M56 1261q0 38 36 37q98 -6 231.5 -6t266.5 6q37 0 36 -37.5t-11.5 -44t-46.5 -6.5t-63.5 -13t-41.5 -34q-20 -33 -21 -110v-639q0 -334 326 -334q274 0 330 194q16 55 16 111v539q0 197 -21.5 234.5t-53 44.5t-67.5 7t-50.5 4.5t-15.5 44t36 39.5q98 -6 229.5 -6t229.5 6 q36 0 36 -35v-2q-1 -38 -11.5 -44.5t-47.5 -6.5t-70.5 -6t-50.5 -33q-29 -43 -28 -235v-571q0 -199 -168 -312q-139 -94 -294 -94t-248 34t-154 89q-125 113 -125 272v699q0 115 -58 143q-27 14 -62.5 14t-48.5 4q-15 5 -15 47zM485 1669q26 30 54 30q9 0 17 -3 q36 -12 73 -41t67 -58l158 -151q14 -14 14 -27q0 -10 -8 -19q-18 -22 -34 -27q-3 -1 -7 -1q-16 0 -47 17q-39 20 -102 59l-129 80q-75 49 -75 95q0 23 19 46z" />
<glyph unicode="&#xda;" horiz-adv-x="1474" d="M56 1261q0 38 36 37q98 -6 231.5 -6t266.5 6q37 0 36 -37.5t-11.5 -44t-46.5 -6.5t-63.5 -13t-41.5 -34q-20 -33 -21 -110v-639q0 -334 326 -334q274 0 330 194q16 55 16 111v539q0 197 -21.5 234.5t-53 44.5t-67.5 7t-50.5 4.5t-15.5 44t36 39.5q98 -6 229.5 -6t229.5 6 q36 0 36 -35v-2q-1 -38 -11.5 -44.5t-47.5 -6.5t-70.5 -6t-50.5 -33q-29 -43 -28 -235v-571q0 -199 -168 -312q-139 -94 -294 -94t-248 34t-154 89q-125 113 -125 272v699q0 115 -58 143q-27 14 -62.5 14t-48.5 4q-15 5 -15 47zM666 1442q231 229 284 248q17 6 32 5 q33 0 56 -28q19 -22 20 -45q0 -45 -75 -94l-129 -80q-63 -39 -102 -59q-31 -16 -48 -17q-4 0 -7 1q-15 5 -25 18q-15 17 -15 31q0 11 9 20z" />
<glyph unicode="&#xdb;" horiz-adv-x="1474" d="M56 1261q0 38 36 37q98 -6 231.5 -6t266.5 6q37 0 36 -37.5t-11.5 -44t-46.5 -6.5t-63.5 -13t-41.5 -34q-20 -33 -21 -110v-639q0 -334 326 -334q274 0 330 194q16 55 16 111v539q0 197 -21.5 234.5t-53 44.5t-67.5 7t-50.5 4.5t-15.5 44t36 39.5q98 -6 229.5 -6t229.5 6 q36 0 36 -35v-2q-1 -38 -11.5 -44.5t-47.5 -6.5t-70.5 -6t-50.5 -33q-29 -43 -28 -235v-571q0 -199 -168 -312q-139 -94 -294 -94t-248 34t-154 89q-125 113 -125 272v699q0 115 -58 143q-27 14 -62.5 14t-48.5 4q-15 5 -15 47zM463 1407q-18 16 -18 32q0 17 20 34l260 190 q27 18 50.5 18t47.5 -18l260 -190q21 -18 21 -35q0 -16 -19 -31q-8 -7 -23 -7q-36 0 -110 40l-178 94l-147 -76q-104 -57 -144 -57q-13 0 -20 6z" />
<glyph unicode="&#xdc;" horiz-adv-x="1474" d="M56 1261q0 38 36 37q98 -6 231.5 -6t266.5 6q37 0 36 -37.5t-11.5 -44t-46.5 -6.5t-63.5 -13t-41.5 -34q-20 -33 -21 -110v-639q0 -334 326 -334q274 0 330 194q16 55 16 111v539q0 197 -21.5 234.5t-53 44.5t-67.5 7t-50.5 4.5t-15.5 44t36 39.5q98 -6 229.5 -6t229.5 6 q36 0 36 -35v-2q-1 -38 -11.5 -44.5t-47.5 -6.5t-70.5 -6t-50.5 -33q-29 -43 -28 -235v-571q0 -199 -168 -312q-139 -94 -294 -94t-248 34t-154 89q-125 113 -125 272v699q0 115 -58 143q-27 14 -62.5 14t-48.5 4q-15 5 -15 47zM477 1558.5q0 51.5 38 86t91 34.5t88 -34.5 t35 -86t-36 -88t-89 -36.5t-90 36.5t-37 88zM870 1558.5q0 51.5 38 86t91.5 34.5t88 -34.5t34.5 -86t-35.5 -88t-89 -36.5t-90.5 36.5t-37 88z" />
<glyph unicode="&#xdd;" horiz-adv-x="1271" d="M8 1262.5q0 33.5 23.5 37t77 3.5t110.5 -10.5t105 -35.5q92 -47 155.5 -162.5t111.5 -219t107 -213.5h7l227 448q21 41 21 61q0 12 -7 17q-27 23 -77 22.5t-63 4t-14 44t33 39.5q98 -6 176 -6h101q25 0 49 2h47q25 2 57 4q36 0 36 -37q0 -42 -14 -47q-13 -4 -65 -4 q-111 0 -186 -139l-231 -436l-25 -51q-31 -61 -31 -146v-198q0 -117 58 -146q27 -12 62.5 -12t49 -4t14.5 -44t-34 -40q-98 6 -233.5 6t-266.5 -6q-37 0 -36 40t15.5 44t49.5 4t61.5 13.5t38.5 35.5q18 33 19 109v256q0 25 -41 110q-145 299 -179 361l-47 88 q-72 129 -211 159q-29 6 -40 10.5t-11 38zM514 1442q231 229 285 248q17 6 31 5q33 0 57 -28q19 -22 19 -45q0 -45 -75 -94l-129 -80q-63 -39 -102 -59q-31 -16 -47 -17q-4 0 -7 1q-15 5 -26 18q-15 17 -15 31q0 11 9 20z" />
<glyph unicode="&#xde;" horiz-adv-x="1241" d="M87 1261q0 38 36 37q98 -6 232 -6t268 6q37 0 34.5 -39.5t-15.5 -44t-47 -4.5t-60.5 -12t-38.5 -31q-23 -33 -23 -98h205q313 0 452 -184q57 -76 57.5 -186.5t-43.5 -186.5t-117 -128t-165 -80t-196.5 -28t-192.5 35v-71q0 -117 57 -146q27 -12 63 -12t49 -4t15 -44 t-34 -40q-133 6 -267.5 6t-232.5 -6q-36 0 -36 38v2q1 40 15.5 44t49 4t61.5 13.5t39 35.5q14 27 20 109v813q-6 82 -18 106q-29 51 -117 51q-20 0 -35 4q-15 5 -15 47zM473 391q45 -20 119 -20t133 12t111 47q125 80 125 250q0 281 -340 295h-148v-584z" />
<glyph unicode="&#xdf;" horiz-adv-x="1236" d="M61 69q12 3 33 3q104 0 105 88v921q0 195 111.5 302.5t318.5 107.5h14q175 0 295 -94q119 -94 119 -230q0 -193 -230 -297v-6q158 -31 241 -134t83 -239.5t-30.5 -225.5t-84.5 -150q-113 -127 -278 -127q-94 0 -154 50q-58 49 -58 111v3q1 63 32.5 104t77.5 41 t65.5 -18.5t19.5 -24.5t-8 -12t-18 -17q-29 -33 -29 -72.5t21.5 -62t60.5 -22.5t75 39.5t58 95.5q39 102 39 199.5t-15.5 171t-47.5 128.5q-68 119 -197 119h-59q-41 0 -41 37t41 41h59q76 0 127 80q51 78 51 176q0 170 -115 229q-41 23 -98 23q-258 0 -258 -289v-907 q0 -115 26.5 -128t53.5 -12t40 -2t14 -39t-32 -36q-102 7 -204 7l-205 -7q-32 0 -32 34q0 38 13 41z" />
<glyph unicode="&#xe0;" horiz-adv-x="1026" d="M70 206q0 87 35.5 138t91 84t124 51.5t135 27.5t123 12t89.5 7v162q0 205 -211 205q-59 0 -108.5 -37t-49.5 -84t10 -66.5t22.5 -31.5t23 -20.5t10.5 -14.5t-24 -26.5t-77 -20.5t-87 47t-34 104q0 158 209 199q57 10 117 10q379 0 379 -299v-477q0 -72 55 -106 q20 -14 51 -14.5t31 -32.5q0 -47 -94 -47.5t-153.5 43.5t-69.5 122q-66 -117 -250 -155q-51 -10 -99.5 -10.5t-94.5 19t-81 52.5q-73 72 -73 159zM236 1372q12 37 47 55q23 12 43 13q41 0 69 -49l154 -281q10 -17 9 -31q0 -22 -23 -37q-14 -8 -28 -8q-25 0 -48 27l-209 244 q-18 21 -18 44q0 11 4 23zM276 263q0 -83 37 -130t92.5 -47t102.5 20.5t82 55.5q78 74 78 188v115q-209 -27 -275 -59q-117 -60 -117 -143z" />
<glyph unicode="&#xe1;" horiz-adv-x="1026" d="M70 206q0 87 35.5 138t91 84t124 51.5t135 27.5t123 12t89.5 7v162q0 205 -211 205q-59 0 -108.5 -37t-49.5 -84t10 -66.5t22.5 -31.5t23 -20.5t10.5 -14.5t-24 -26.5t-77 -20.5t-87 47t-34 104q0 158 209 199q57 10 117 10q379 0 379 -299v-477q0 -72 55 -106 q20 -14 51 -14.5t31 -32.5q0 -47 -94 -47.5t-153.5 43.5t-69.5 122q-66 -117 -250 -155q-51 -10 -99.5 -10.5t-94.5 19t-81 52.5q-73 72 -73 159zM276 263q0 -83 37 -130t92.5 -47t102.5 20.5t82 55.5q78 74 78 188v115q-209 -27 -275 -59q-117 -60 -117 -143zM362 1110 l154 281q29 49 69 49q20 0 44 -13q35 -18 47 -55q4 -12 4 -23q0 -24 -18 -44l-209 -244q-24 -26 -49 -27q-14 0 -27 8q-24 14 -24 37q-1 14 9 31z" />
<glyph unicode="&#xe2;" horiz-adv-x="1026" d="M70 206q0 87 35.5 138t91 84t124 51.5t135 27.5t123 12t89.5 7v162q0 205 -211 205q-59 0 -108.5 -37t-49.5 -84t10 -66.5t22.5 -31.5t23 -20.5t10.5 -14.5t-24 -26.5t-77 -20.5t-87 47t-34 104q0 158 209 199q57 10 117 10q379 0 379 -299v-477q0 -72 55 -106 q20 -14 51 -14.5t31 -32.5q0 -47 -94 -47.5t-153.5 43.5t-69.5 122q-66 -117 -250 -155q-51 -10 -99.5 -10.5t-94.5 19t-81 52.5q-73 72 -73 159zM202 1078q-5 10 -5 21q0 13 8 25l209 303q18 27 41 27q45 0 61 -27l209 -303q12 -18 12 -31.5t-12 -21.5q-20 -12 -38 -12 q-20 0 -38 14q-61 47 -184 205q-170 -217 -219 -221q-33 -3 -44 21zM276 263q0 -83 37 -130t92.5 -47t102.5 20.5t82 55.5q78 74 78 188v115q-209 -27 -275 -59q-117 -60 -117 -143z" />
<glyph unicode="&#xe3;" horiz-adv-x="1026" d="M70 206q0 87 35.5 138t91 84t124 51.5t135 27.5t123 12t89.5 7v162q0 205 -211 205q-59 0 -108.5 -37t-49.5 -84t10 -66.5t22.5 -31.5t23 -20.5t10.5 -14.5t-24 -26.5t-77 -20.5t-87 47t-34 104q0 158 209 199q57 10 117 10q379 0 379 -299v-477q0 -72 55 -106 q20 -14 51 -14.5t31 -32.5q0 -47 -94 -47.5t-153.5 43.5t-69.5 122q-66 -117 -250 -155q-51 -10 -99.5 -10.5t-94.5 19t-81 52.5q-73 72 -73 159zM166 1151q-26 10 -26 37q0 30 32 82q78 121 193 121q59 0 110 -41l74 -60q25 -18 49 -18q68 0 137 86q25 29 44.5 16.5 t23.5 -27.5q1 -4 1 -9q0 -13 -8 -32q-11 -26 -32 -57.5t-47 -56.5q-61 -57 -121.5 -57t-93.5 19.5t-60 41.5l-49 39q-25 18 -49 18q-66 0 -137 -86q-21 -22 -41 -16zM276 263q0 -83 37 -130t92.5 -47t102.5 20.5t82 55.5q78 74 78 188v115q-209 -27 -275 -59 q-117 -60 -117 -143z" />
<glyph unicode="&#xe4;" horiz-adv-x="1026" d="M70 206q0 87 35.5 138t91 84t124 51.5t135 27.5t123 12t89.5 7v162q0 205 -211 205q-59 0 -108.5 -37t-49.5 -84t10 -66.5t22.5 -31.5t23 -20.5t10.5 -14.5t-24 -26.5t-77 -20.5t-87 47t-34 104q0 158 209 199q57 10 117 10q379 0 379 -299v-477q0 -72 55 -106 q20 -14 51 -14.5t31 -32.5q0 -47 -94 -47.5t-153.5 43.5t-69.5 122q-66 -117 -250 -155q-51 -10 -99.5 -10.5t-94.5 19t-81 52.5q-73 72 -73 159zM178 1245q0 51 38 86t91 35t88 -35t35 -86t-36 -88t-89 -37t-90 37t-37 88zM276 263q0 -83 37 -130t92.5 -47t102.5 20.5 t82 55.5q78 74 78 188v115q-209 -27 -275 -59q-117 -60 -117 -143zM532 1245q0 51 38 86t91.5 35t88 -35t34.5 -86t-35.5 -88t-89 -37t-90.5 37t-37 88z" />
<glyph unicode="&#xe5;" horiz-adv-x="1026" d="M70 206q0 87 35.5 138t91 84t124 51.5t135 27.5t123 12t89.5 7v162q0 205 -211 205q-59 0 -108.5 -37t-49.5 -84t10 -66.5t22.5 -31.5t23 -20.5t10.5 -14.5t-24 -26.5t-77 -20.5t-87 47t-34 104q0 158 209 199q57 10 117 10q379 0 379 -299v-477q0 -72 55 -106 q20 -14 51 -14.5t31 -32.5q0 -47 -94 -47.5t-153.5 43.5t-69.5 122q-66 -117 -250 -155q-51 -10 -99.5 -10.5t-94.5 19t-81 52.5q-73 72 -73 159zM244 1333q0 201 225 201q109 0 165 -53.5t56 -145.5t-59.5 -144t-162.5 -52t-163.5 53t-60.5 141zM276 263q0 -83 37 -130 t92.5 -47t102.5 20.5t82 55.5q78 74 78 188v115q-209 -27 -275 -59q-117 -60 -117 -143zM377 1338q0 -124 92 -124q53 0 70.5 33t17.5 86q0 129 -90 129t-90 -124z" />
<glyph unicode="&#xe6;" horiz-adv-x="1583" d="M70 206q0 87 35.5 138t91 84t124 51.5t135 27.5t123 12t89.5 7v162q0 205 -211 205q-59 0 -108.5 -37t-49.5 -84t10 -66.5t22.5 -31.5t23 -20.5t10.5 -14.5t-24 -26.5t-77 -20.5t-87 47t-34 104q0 158 209 199q57 10 117 10q240 0 326 -116q125 117 301 116 q270 0 358 -207q32 -71 32 -146q0 -64 -37 -85q-40 -23 -103 -22h-498q0 -295 176 -383q61 -31 147 -31t147.5 37t119.5 129q16 20 39 6q29 -19 29 -40q0 -10 -7 -20q-135 -215 -404.5 -215t-392.5 228q-51 -102 -101 -136t-97 -55q-95 -40 -174 -39q-108 0 -187 74 q-73 72 -73 159zM276 263q0 -83 37 -130t92.5 -47t102.5 20.5t82 55.5q78 74 78 188v115q-209 -27 -275 -59q-117 -60 -117 -143zM848 569h334q102 0 110 86q0 152 -110 207q-37 18 -114 18.5t-144.5 -82t-75.5 -229.5z" />
<glyph unicode="&#xe7;" horiz-adv-x="972" d="M126 659q38 88 103 152q131 133 336 141q272 0 318 -170q6 -28 6 -52q0 -39 -17 -66q-49 -84 -109.5 -84t-85 22.5t-24.5 28.5t10.5 14t24.5 23q33 37 33 91t-47 84.5t-107 33.5q-274 0 -274 -406q0 -270 166 -365q53 -29 131 -28q152 0 252 153q14 20 35 9 q31 -17 31 -37q0 -9 -7 -19q-68 -98 -167 -153.5t-204 -55.5h-18q-8 0 -16 2v-61q131 0 180 -76q18 -27 18 -67q0 -199 -377 -199q-41 0 -41 47t42 47t82 1t73 7q72 16 72 66q0 53 -117 61q-33 6 -33 47v144q-150 39 -230 163q-79 121 -79 262q0 147 40 240z" />
<glyph unicode="&#xe8;" horiz-adv-x="1028" d="M84 469q0 188 123 330q131 154 334 153q270 0 360 -207q30 -71 30 -146q0 -64 -37 -85q-40 -23 -103 -22h-498q0 -295 176 -383q61 -31 147 -31t147.5 37t119.5 129q16 20 39 6q29 -19 29 -40q0 -10 -7 -20q-135 -215 -381 -215q-231 0 -358 146q-121 137 -121 348z M293 569h334q102 0 110 86q0 152 -110 207q-37 18 -114 18.5t-144.5 -82t-75.5 -229.5zM309 1372q12 37 47 55q23 12 44 13q41 0 69 -49l154 -281q10 -17 9 -31q0 -22 -24 -37q-14 -8 -27 -8q-25 0 -49 27l-208 244q-18 21 -19 44q0 11 4 23z" />
<glyph unicode="&#xe9;" horiz-adv-x="1028" d="M84 469q0 188 123 330q131 154 334 153q270 0 360 -207q30 -71 30 -146q0 -64 -37 -85q-40 -23 -103 -22h-498q0 -295 176 -383q61 -31 147 -31t147.5 37t119.5 129q16 20 39 6q29 -19 29 -40q0 -10 -7 -20q-135 -215 -381 -215q-231 0 -358 146q-121 137 -121 348z M293 569h334q102 0 110 86q0 152 -110 207q-37 18 -114 18.5t-144.5 -82t-75.5 -229.5zM436 1110l154 281q29 49 69 49q20 0 43 -13q35 -18 48 -55q4 -12 3 -23q0 -24 -18 -44l-209 -244q-24 -26 -48 -27q-14 0 -27 8q-24 14 -24 37q-1 14 9 31z" />
<glyph unicode="&#xea;" horiz-adv-x="1028" d="M84 469q0 188 123 330q131 154 334 153q270 0 360 -207q30 -71 30 -146q0 -64 -37 -85q-40 -23 -103 -22h-498q0 -295 176 -383q61 -31 147 -31t147.5 37t119.5 129q16 20 39 6q29 -19 29 -40q0 -10 -7 -20q-135 -215 -381 -215q-231 0 -358 146q-121 137 -121 348z M275 1078q-5 10 -5 21q0 13 9 25l208 303q18 27 41 27q45 0 62 -27l209 -303q12 -18 12 -31.5t-12 -21.5q-20 -12 -38 -12q-20 0 -38 14q-61 47 -184 205q-170 -217 -220 -221q-33 -3 -44 21zM293 569h334q102 0 110 86q0 152 -110 207q-37 18 -114 18.5t-144.5 -82 t-75.5 -229.5z" />
<glyph unicode="&#xeb;" horiz-adv-x="1028" d="M84 469q0 188 123 330q131 154 334 153q270 0 360 -207q30 -71 30 -146q0 -64 -37 -85q-40 -23 -103 -22h-498q0 -295 176 -383q61 -31 147 -31t147.5 37t119.5 129q16 20 39 6q29 -19 29 -40q0 -10 -7 -20q-135 -215 -381 -215q-231 0 -358 146q-121 137 -121 348z M252 1245q0 51 38 86t91 35t88 -35t35 -86t-36 -88t-89 -37t-90 37t-37 88zM293 569h334q102 0 110 86q0 152 -110 207q-37 18 -114 18.5t-144.5 -82t-75.5 -229.5zM606 1245q0 51 38 86t91 35t88 -35t35 -86t-36 -88t-89 -37t-90 37t-37 88z" />
<glyph unicode="&#xec;" horiz-adv-x="606" d="M31 1372q12 37 47 55q23 12 43 13q41 0 69 -49l154 -281q10 -17 10 -31q0 -22 -24 -37q-14 -8 -28 -8q-25 0 -48 27l-209 244q-18 21 -18 44q0 11 4 23zM68 852q0 37 32 45q123 18 189 41q68 23 92 23q8 0 12 -3q14 -10 15 -34v-764q0 -88 106 -88q18 0 32 -3t14 -41 q0 -34 -32 -34q-90 6 -215 6t-177 -3t-60 9t-6 36t14 27t33 3q104 0 104 88v573q0 86 -104 86q-18 0 -33.5 5t-15.5 28z" />
<glyph unicode="&#xed;" horiz-adv-x="606" d="M68 852q0 37 32 45q123 18 189 41q68 23 92 23q8 0 12 -3q14 -10 15 -34v-764q0 -88 106 -88q18 0 32 -3t14 -41q0 -34 -32 -34q-90 6 -215 6t-177 -3t-60 9t-6 36t14 27t33 3q104 0 104 88v573q0 86 -104 86q-18 0 -33.5 5t-15.5 28zM158 1110l153 281q29 49 69 49 q20 0 44 -13q35 -18 47 -55q4 -12 4 -23q0 -24 -18 -44l-209 -244q-24 -26 -49 -27q-14 0 -27 8q-24 14 -24 37q0 14 10 31z" />
<glyph unicode="&#xee;" horiz-adv-x="606" d="M-3 1078q-5 10 -5 21q0 13 8 25l209 303q18 27 41 27q45 0 61 -27l209 -303q25 -37 0 -53q-20 -12 -38 -12q-20 0 -38 14q-61 47 -184 205q-170 -217 -219 -221q-33 -3 -44 21zM68 852q0 37 32 45q123 18 189 41q68 23 92 23q8 0 12 -3q14 -10 15 -34v-764q0 -88 106 -88 q18 0 32 -3t14 -41q0 -34 -32 -34q-90 6 -215 6t-177 -3t-60 9t-6 36t14 27t33 3q104 0 104 88v573q0 86 -104 86q-18 0 -33.5 5t-15.5 28z" />
<glyph unicode="&#xef;" horiz-adv-x="606" d="M-27 1245q0 51 38 86t91.5 35t88 -35t34.5 -86t-35.5 -88t-89 -37t-90.5 37t-37 88zM68 852q0 37 32 45q123 18 189 41q68 23 92 23q8 0 12 -3q14 -10 15 -34v-764q0 -88 106 -88q18 0 31.5 -3t14.5 -39t-32 -36q-90 6 -215 6t-177 -3t-60 9t-6 36t14 27t33 3 q104 0 104 88v573q0 86 -104 86q-18 0 -33.5 5t-15.5 28zM328 1245q0 51 37.5 86t91 35t88.5 -35t35 -86t-36 -88t-89.5 -37t-90 37t-36.5 88z" />
<glyph unicode="&#xf0;" horiz-adv-x="1153" d="M86 405.5q0 155.5 43 249t111 154.5q135 123 304 123h11q96 -2 151.5 -33t104.5 -70l8 2q-23 190 -166 396l-198 -117q-25 -8 -36 18.5t-11 41t12 20.5l184 104q-43 57 -96 96t-57.5 50.5t0.5 25.5q9 28 25 29q6 0 13 -4q27 -14 56 -33l55 -37q61 -41 96 -75l176 106 q18 12 34 -14.5t16 -42t-11 -21.5l-155 -90q205 -217 260 -582q12 -89 12 -180q0 -29 -1 -57q-5 -121 -49 -213t-112 -154q-135 -123 -277.5 -123t-228.5 38t-147 102q-127 135 -127 290.5zM287 444q0 -272 143 -362q51 -31 125 -31q268 0 268 416q0 270 -145 358 q-51 31 -123 31q-268 0 -268 -412z" />
<glyph unicode="&#xf1;" horiz-adv-x="1226" d="M68 852q0 37 32 45q133 20 191 41q62 24 87 24q8 0 12 -3q15 -11 16 -35v-129h6l61 57q113 100 261.5 100t229 -84t80.5 -221v-487q0 -88 107 -88q18 0 32 -3t14 -41q0 -34 -32 -34q-88 6 -215 6q-123 0 -213 -6q-33 0 -31.5 36t14.5 39t44 3t52.5 11t31.5 32 q10 23 10 96v434q0 96 -45 133q-72 61 -138.5 61.5t-109.5 -15t-73 -38.5q-66 -45 -84 -88v-538q0 -88 106 -88q18 0 31.5 -3t14.5 -39t-32 -36q-90 6 -215 6t-177 -3t-60 9t-6 36t14 27t33 3q104 0 104 88v573q0 86 -104 86q-18 0 -33.5 5t-15.5 28zM334 1151 q-26 10 -26 37q0 30 32 82q78 121 192 121q59 0 111 -41l74 -60q25 -18 49 -18q68 0 137 86q25 29 44.5 16.5t23.5 -27.5q1 -4 1 -9q0 -13 -8 -32q-11 -26 -32 -57.5t-47 -56.5q-61 -57 -122 -57t-93.5 19.5t-59.5 41.5l-49 39q-25 18 -49 18q-66 0 -137 -86 q-21 -22 -41 -16z" />
<glyph unicode="&#xf2;" horiz-adv-x="1122" d="M84 451q0 227 158 372q139 129 331 129q94 0 182.5 -40t151.5 -105q131 -135 131 -330q0 -225 -157 -373q-141 -129 -320 -129q-205 0 -346 146q-131 135 -131 330zM293 509q0 -134 14.5 -207t44.5 -130q70 -121 209 -121q268 0 268 426q0 276 -145 367q-51 33 -125 33 t-125 -34t-82 -93q-59 -107 -59 -241zM330 1372q12 37 47 55q23 12 43 13q41 0 69 -49l154 -281q10 -17 10 -31q0 -22 -24 -37q-14 -8 -28 -8q-25 0 -48 27l-209 244q-18 21 -18 44q0 11 4 23z" />
<glyph unicode="&#xf3;" horiz-adv-x="1122" d="M84 451q0 227 158 372q139 129 331 129q94 0 182.5 -40t151.5 -105q131 -135 131 -330q0 -225 -157 -373q-141 -129 -320 -129q-205 0 -346 146q-131 135 -131 330zM293 509q0 -134 14.5 -207t44.5 -130q70 -121 209 -121q268 0 268 426q0 276 -145 367q-51 33 -125 33 t-125 -34t-82 -93q-59 -107 -59 -241zM457 1110l153 281q29 49 69 49q20 0 44 -13q35 -18 47 -55q4 -12 4 -23q0 -24 -18 -44l-209 -244q-24 -26 -49 -27q-14 0 -27 8q-24 14 -24 37q0 14 10 31z" />
<glyph unicode="&#xf4;" horiz-adv-x="1122" d="M84 451q0 227 158 372q139 129 331 129q94 0 182.5 -40t151.5 -105q131 -135 131 -330q0 -225 -157 -373q-141 -129 -320 -129q-205 0 -346 146q-131 135 -131 330zM293 509q0 -134 14.5 -207t44.5 -130q70 -121 209 -121q268 0 268 426q0 276 -145 367q-51 33 -125 33 t-125 -34t-82 -93q-59 -107 -59 -241zM296 1078q-5 10 -5 21q0 13 8 25l209 303q18 27 41 27q45 0 61 -27l209 -303q12 -18 12 -31.5t-12 -21.5q-20 -12 -38 -12q-20 0 -38 14q-61 47 -184 205q-170 -217 -219 -221h-5q-29 -1 -39 21z" />
<glyph unicode="&#xf5;" horiz-adv-x="1122" d="M84 451q0 227 158 372q139 129 331 129q94 0 182.5 -40t151.5 -105q131 -135 131 -330q0 -225 -157 -373q-141 -129 -320 -129q-205 0 -346 146q-131 135 -131 330zM260 1151q-26 10 -26 37q0 30 32 82q78 121 193 121q59 0 110 -41l74 -60q25 -18 49 -18q68 0 137 86 q25 29 44.5 16.5t23.5 -27.5q1 -4 1 -9q0 -13 -8 -32q-11 -26 -31.5 -57.5t-47.5 -56.5q-61 -57 -121.5 -57t-93.5 19.5t-59 41.5l-50 39q-25 18 -49 18q-66 0 -137 -86q-21 -22 -41 -16zM293 509q0 -134 14.5 -207t44.5 -130q70 -121 209 -121q268 0 268 426 q0 276 -145 367q-51 33 -125 33t-125 -34t-82 -93q-59 -107 -59 -241z" />
<glyph unicode="&#xf6;" horiz-adv-x="1122" d="M84 451q0 227 158 372q139 129 331 129q94 0 182.5 -40t151.5 -105q131 -135 131 -330q0 -225 -157 -373q-141 -129 -320 -129q-205 0 -346 146q-131 135 -131 330zM272 1245q0 51 38 86t91.5 35t88 -35t34.5 -86t-35.5 -88t-89 -37t-90.5 37t-37 88zM293 509 q0 -134 14.5 -207t44.5 -130q70 -121 209 -121q268 0 268 426q0 276 -145 367q-51 33 -125 33t-125 -34t-82 -93q-59 -107 -59 -241zM627 1245q0 51 37.5 86t91 35t88.5 -35t35 -86t-36 -88t-89.5 -37t-90 37t-36.5 88z" />
<glyph unicode="&#xf7;" horiz-adv-x="1228" d="M106 540.5q0 55.5 46 55.5h921q45 0 45 -55.5t-45 -55.5h-921q-46 0 -46 55.5zM432 144.5q0 56.5 37 93t93 36.5t94 -36.5t38 -93t-38 -91.5t-94 -35t-93 35t-37 91.5zM432 906.5q0 56.5 37 93t93 36.5t94 -36.5t38 -93t-38 -91.5t-94 -35t-93 35t-37 91.5z" />
<glyph unicode="&#xf8;" horiz-adv-x="1120" d="M84 415.5q0 155.5 44 250t114 157.5q139 129 314 129t300 -98l96 109q18 20 33 20q9 0 16 -8q24 -23 24 -41q0 -11 -9 -21l-103 -114q125 -137 125 -290t-45 -247t-112 -158q-141 -129 -313.5 -129t-297.5 95l-71 -80q-18 -20 -33 -20q-9 0 -16 7q-24 23 -24 41 q0 11 9 21l76 86q-127 135 -127 290.5zM293 455q0 -119 26 -207l449 508q-72 121 -207 121q-268 0 -268 -422zM356 168q72 -117 205 -117q268 0 268 426q0 115 -26 195z" />
<glyph unicode="&#xf9;" horiz-adv-x="1220" d="M35 831q0 37 33 46q123 18 188 41q68 23 93 23q8 0 11 -3q14 -10 15 -35v-620q0 -96 45 -133q72 -61 138.5 -61.5t109.5 15t75 37.5q61 43 82 88v484q0 86 -104 86q-18 0 -33.5 5t-15.5 27q0 37 33 46q123 18 188 41q68 23 92 23q8 0 12 -3q14 -10 15 -35v-708 q0 -121 162 -121q35 0 34.5 -34t-34.5 -40l-330 -23q-18 0 -19 41v115h-4l-61 -55q-113 -102 -261.5 -102.5t-229.5 83.5t-81 222v432q0 86 -104 86q-18 0 -33.5 4.5t-15.5 27.5zM342 1372q12 37 47 55q23 12 44 13q41 0 69 -49l153 -281q10 -17 10 -31q0 -22 -24 -37 q-14 -8 -27 -8q-25 0 -49 27l-209 244q-18 21 -18 44q0 11 4 23z" />
<glyph unicode="&#xfa;" horiz-adv-x="1220" d="M35 831q0 37 33 46q123 18 188 41q68 23 93 23q8 0 11 -3q14 -10 15 -35v-620q0 -96 45 -133q72 -61 138.5 -61.5t109.5 15t75 37.5q61 43 82 88v484q0 86 -104 86q-18 0 -33.5 5t-15.5 27q0 37 33 46q123 18 188 41q68 23 92 23q8 0 12 -3q14 -10 15 -35v-708 q0 -121 162 -121q35 0 34.5 -34t-34.5 -40l-330 -23q-18 0 -19 41v115h-4l-61 -55q-113 -102 -261.5 -102.5t-229.5 83.5t-81 222v432q0 86 -104 86q-18 0 -33.5 4.5t-15.5 27.5zM469 1110l154 281q29 49 69 49q20 0 43 -13q35 -18 47 -55q4 -12 4 -23q0 -24 -18 -44 l-209 -244q-24 -26 -48 -27q-14 0 -28 8q-24 14 -24 37q0 14 10 31z" />
<glyph unicode="&#xfb;" horiz-adv-x="1220" d="M35 831q0 37 33 46q123 18 188 41q68 23 93 23q8 0 11 -3q14 -10 15 -35v-620q0 -96 45 -133q72 -61 138.5 -61.5t109.5 15t75 37.5q61 43 82 88v484q0 86 -104 86q-18 0 -33.5 5t-15.5 27q0 37 33 46q123 18 188 41q68 23 92 23q8 0 12 -3q14 -10 15 -35v-708 q0 -121 162 -121q35 0 34.5 -34t-34.5 -40l-330 -23q-18 0 -19 41v115h-4l-61 -55q-113 -102 -261.5 -102.5t-229.5 83.5t-81 222v432q0 86 -104 86q-18 0 -33.5 4.5t-15.5 27.5zM308 1078q-5 10 -5 21q0 13 8 25l209 303q18 27 41 27q45 0 62 -27l208 -303 q12 -18 12.5 -31.5t-12.5 -21.5q-20 -12 -37 -12q-20 0 -38 14q-61 47 -185 205q-170 -217 -219 -221h-5q-29 -1 -39 21z" />
<glyph unicode="&#xfc;" horiz-adv-x="1220" d="M35 831q0 37 33 46q123 18 188 41q68 23 93 23q8 0 11 -3q14 -10 15 -35v-620q0 -96 45 -133q72 -61 138.5 -61.5t109.5 15t75 37.5q61 43 82 88v484q0 86 -104 86q-18 0 -33.5 5t-15.5 27q0 37 33 46q123 18 188 41q68 23 92 23q8 0 12 -3q14 -10 15 -35v-708 q0 -121 162 -121q35 0 34.5 -34t-34.5 -40l-330 -23q-18 0 -19 41v115h-4l-61 -55q-113 -102 -261.5 -102.5t-229.5 83.5t-81 222v432q0 86 -104 86q-18 0 -33.5 4.5t-15.5 27.5zM285 1245q0 51 37.5 86t91 35t88.5 -35t35 -86t-36 -88t-89.5 -37t-90 37t-36.5 88zM639 1245 q0 51 38 86t91 35t88 -35t35 -86t-36 -88t-89 -37t-90 37t-37 88z" />
<glyph unicode="&#xfd;" horiz-adv-x="1130" d="M-2 -170q41 53 93 55q6 0 12 1q43 0 61 -14q20 -15 20 -22.5t-15 -22.5t-17 -53q0 -3 -1 -6q0 -35 23 -67q25 -35 72 -35t84 25.5t67 62.5q47 57 105 176q5 16 5 34q0 34 -18 77l-198 516q-88 215 -117 244q-45 45 -88 51t-52 9t-11.5 35t19 35t99.5 7q9 1 18 0 q165 0 251 -184l155 -394q29 -72 58 -129h6l200 537q11 31 11 50q0 17 -9 24q-18 14 -58 14t-52 3t-13 39t27 36q88 -6 158 -6h86q33 0 125 6q30 0 30 -34v-2q-1 -36 -14.5 -39t-54.5 -3q-102 0 -152 -121l-292 -719q-14 -35 -15 -36q-172 -426 -407 -426q-143 0 -207 118 q-17 33 -18 77q0 51 24 81zM463 1110l153 281q29 49 70 49q20 0 43 -13q35 -18 47 -55q4 -12 4 -23q0 -24 -18 -44l-209 -244q-24 -26 -48 -27q-14 0 -28 8q-24 14 -24 37q0 14 10 31z" />
<glyph unicode="&#xfe;" horiz-adv-x="1148" d="M6 1380q0 37 33 45q123 18 188 41q68 23 93 23q8 0 12 -2q14 -10 14 -35v-618h6q119 119 283 118q184 0 307 -133q123 -135 123 -348q0 -207 -143 -352q-137 -143 -298 -143.5t-270 63.5h-8v-248q0 -104 33 -121.5t62.5 -17.5t43 -3t14.5 -39t-32 -36q-90 6 -215 6 t-213 -6q-33 0 -32 36t14.5 39t43 3t51 11t31.5 30q12 25 13 98v1471q0 86 -105 86q-18 0 -33.5 4.5t-15.5 27.5zM346 215q18 -98 137 -152q41 -18 98.5 -18t108.5 28.5t88 82.5q78 115 78 307q0 256 -160 352q-55 35 -159.5 35t-190.5 -94v-541z" />
<glyph unicode="&#xff;" horiz-adv-x="1130" d="M-2 -170q41 53 93 55q6 0 12 1q43 0 61 -14q20 -15 20 -22.5t-15 -22.5t-17 -53q0 -3 -1 -6q0 -35 23 -67q25 -35 72 -35t84 25.5t67 62.5q47 57 105 176q5 16 5 34q0 34 -18 77l-198 516q-88 215 -117 244q-45 45 -88 51t-52 9t-11.5 35t19 35t99.5 7q9 1 18 0 q165 0 251 -184l155 -394q29 -72 58 -129h6l200 537q11 31 11 50q0 17 -9 24q-18 14 -58 14t-52 3t-13 39t27 36q88 -6 158 -6h86q33 0 125 6q30 0 30 -34v-2q-1 -36 -14.5 -39t-54.5 -3q-102 0 -152 -121l-292 -719q-14 -35 -15 -36q-172 -426 -407 -426q-143 0 -207 118 q-17 33 -18 77q0 51 24 81zM279 1245q0 51 37.5 86t91 35t88 -35t34.5 -86t-35.5 -88t-89 -37t-90 37t-36.5 88zM633 1245q0 51 38 86t91 35t88 -35t35 -86t-36 -88t-89 -37t-90 37t-37 88z" />
<glyph unicode="&#x152;" horiz-adv-x="2064" d="M100 653q0 305 232 486q201 154 495 153h1031q53 0 53 -49l6 -287q0 -41 -55.5 -41t-63.5 37q-20 143 -51 185q-47 70 -150 73h-274v-520h371q31 -4 30 -47q0 -41 -30 -41h-371v-387q2 -20 4 -44t16 -44q28 -45 110 -45h13h189q104 4 135 41q39 49 84 196q14 35 44 36 q25 0 60 -23q16 -10 15 -31l-41 -258q-10 -43 -60 -43h-1095q-299 0 -494 174q-203 180 -203 479zM342 664.5q0 -142.5 36 -247t101 -179.5q137 -156 363 -156h145q88 0 107 37q27 47 26 121v813q0 115 -57 143q-27 14 -76 14h-162q-336 0 -444 -297q-39 -106 -39 -248.5z " />
<glyph unicode="&#x153;" horiz-adv-x="1773" d="M84 451q0 227 158 372q139 129 344 129t348 -176q135 176 352 176q270 0 361 -207q30 -71 30 -146q0 -64 -38 -85q-40 -23 -103 -22h-498q0 -295 176 -383q61 -31 147.5 -31t148 37t118.5 129q16 20 39 6q29 -19 29 -40q0 -10 -6 -20q-135 -215 -386 -215t-380 183 q-141 -182 -363 -183q-205 0 -346 146q-131 135 -131 330zM293 509q0 -134 14.5 -207t44.5 -130q70 -121 209 -121q268 0 268 426q0 276 -145 367q-51 33 -125 33t-125 -34t-82 -93q-59 -107 -59 -241zM1030 569h342q102 0 111 86q0 152 -111 207q-37 18 -113.5 18.5 t-148.5 -82t-80 -229.5z" />
<glyph unicode="&#x178;" horiz-adv-x="1271" d="M-195 1581q0 51 38 86t91.5 35t88 -35t34.5 -86t-35.5 -88t-89 -37t-90.5 37t-37 88zM8 1262.5q0 33.5 23.5 37t77 3.5t110.5 -10.5t105 -35.5q92 -47 155.5 -162.5t111.5 -219t107 -213.5h7l227 448q21 41 21 61q0 12 -7 17q-27 23 -77 22.5t-63 4t-14 44t33 39.5 q98 -6 176 -6h101q25 0 49 2h47q25 2 57 4q36 0 36 -37q0 -42 -14 -47q-13 -4 -65 -4q-111 0 -186 -139l-231 -436l-25 -51q-31 -61 -31 -146v-198q0 -117 58 -146q27 -12 62.5 -12t49 -4t14.5 -44t-34 -40q-98 6 -233.5 6t-266.5 -6q-37 0 -36 40t15.5 44t49.5 4t61.5 13.5 t38.5 35.5q18 33 19 109v256q0 25 -41 110q-145 299 -179 361l-47 88q-72 129 -211 159q-29 6 -40 10.5t-11 38zM160 1581q0 51 38 86t91 35t88 -35t35 -86t-36 -88t-89.5 -37t-90 37t-36.5 88z" />
<glyph unicode="&#x2c6;" horiz-adv-x="790" d="M130 1078q-5 10 -5 21q0 13 8 25l209 303q18 27 41 27q45 0 61 -27l209 -303q12 -18 12.5 -31.5t-12.5 -21.5q-20 -12 -38 -12q-20 0 -37 14q-61 47 -185 205q-170 -217 -219 -221h-5q-29 -1 -39 21z" />
<glyph unicode="&#x2dc;" horiz-adv-x="870" d="M125 1151q-26 10 -26 37q0 30 32 82q78 121 193 121q59 0 110 -41l74 -60q25 -18 49 -18q68 0 137 86q25 29 44.5 16.5t23.5 -27.5q1 -4 1 -9q0 -13 -8 -32q-11 -26 -32 -57.5t-47 -56.5q-61 -57 -121.5 -57t-93.5 19.5t-60 41.5l-49 39q-25 18 -49 18q-66 0 -137 -86 q-21 -22 -41 -16z" />
<glyph unicode="&#x2013;" horiz-adv-x="1142" d="M125 540.5q0 55.5 47 55.5h791q47 0 47 -55.5t-47 -55.5h-791q-47 0 -47 55.5z" />
<glyph unicode="&#x2014;" horiz-adv-x="1777" d="M125 540.5q0 55.5 47 55.5h1425q47 0 47.5 -55.5t-47.5 -55.5h-1425q-47 0 -47 55.5z" />
<glyph unicode="&#x2018;" horiz-adv-x="462" d="M78 1170.5q0 76.5 27.5 127t70.5 86.5q72 61 205 103q11 4 19 4q15 0 20 -14q7 -15 7 -27q0 -19 -19 -27q-174 -66 -175 -182q0 -51 53.5 -86t77 -56.5t23.5 -58t-29.5 -68.5t-73.5 -32t-82 21.5t-67 58.5q-57 74 -57 150.5z" />
<glyph unicode="&#x2019;" horiz-adv-x="489" d="M86 954q-7 15 -7 27q0 19 19 27q174 66 174 182q0 51 -53 86t-76.5 56.5t-23.5 58t29.5 68.5t73.5 32t82 -21.5t65 -56.5q59 -76 59 -152.5t-27.5 -127t-70.5 -86.5q-80 -70 -205 -103q-11 -4 -19 -4q-15 -1 -20 14z" />
<glyph unicode="&#x201a;" horiz-adv-x="485" d="M59 -236q-7 15 -7 27q0 19 20 27q174 66 174 182q0 51 -53.5 86t-77 56.5t-23.5 58.5t30 68.5t74 31.5t81.5 -21.5t66.5 -58.5q57 -74 57 -150.5t-27.5 -126.5t-70.5 -87q-80 -70 -205 -103q-11 -4 -19 -4q-15 -1 -20 14z" />
<glyph unicode="&#x201c;" horiz-adv-x="872" d="M78 1172.5q0 76.5 27.5 127t70.5 86.5q72 61 205 103q11 4 19 4q15 0 20 -14q18 -41 -12 -54q-174 -66 -175 -182q0 -51 53.5 -86t77 -56.5t23.5 -58t-29.5 -68.5t-73.5 -32t-82 21.5t-67 56.5q-57 76 -57 152.5zM487 1172.5q0 76.5 28 127t71 86.5q72 61 205 103 q11 4 18 4q15 0 20 -14q7 -15 7 -27q0 -19 -19 -27q-174 -66 -174 -182q0 -51 53.5 -86t77 -56.5t23.5 -58t-30 -68.5t-74 -32t-82 21.5t-66 56.5q-58 76 -58 152.5z" />
<glyph unicode="&#x201d;" horiz-adv-x="897" d="M86 967q-7 15 -7 26q0 19 19 27q174 66 174 182q0 51 -53 86t-76.5 56.5t-23.5 58.5t29.5 68.5t73.5 31.5t82 -21.5t65 -56.5q59 -76 59 -152.5t-27.5 -126.5t-70.5 -87q-80 -70 -205 -103q-11 -4 -19 -4q-15 0 -20 15zM496 967q-7 15 -7 26q0 19 19 27q174 66 174 182 q0 51 -53.5 86t-77 56.5t-23.5 58.5t30 68.5t74 31.5t82 -21.5t64 -56.5q59 -76 59.5 -152.5t-27.5 -126.5t-71 -87q-80 -70 -204 -103q-11 -4 -19 -4q-15 0 -20 15z" />
<glyph unicode="&#x201e;" horiz-adv-x="894" d="M59 -236q-7 15 -7 27q0 19 20 27q174 66 174 182q0 51 -53.5 86t-77 56.5t-23.5 58.5t30 68.5t74 31.5t81.5 -21.5t66.5 -58.5q57 -74 57 -150.5t-27.5 -126.5t-70.5 -87q-80 -70 -205 -103q-11 -4 -19 -4q-15 -1 -20 14zM469 -236q-7 15 -7 27q0 19 19 27 q174 66 174 182q0 51 -53 86t-76.5 56.5t-23.5 58.5t29.5 68.5t73.5 31.5t82 -21.5t67 -58.5q57 -74 57 -150.5t-27.5 -126.5t-70.5 -87q-80 -70 -205 -103q-11 -4 -19 -4q-15 -1 -20 14z" />
<glyph unicode="&#x2022;" horiz-adv-x="874" d="M184 533.5q0 82.5 19.5 127t54.5 76.5q72 74 153 74t127 -19.5t80 -54.5q74 -70 74 -149.5t-19.5 -125.5t-54 -79t-82 -51.5t-128 -18.5t-152.5 69t-72 151.5z" />
<glyph unicode="&#x2026;" horiz-adv-x="1363" d="M96 101.5q0 56.5 37 93t93.5 36.5t94 -36.5t37.5 -93t-37.5 -91.5t-94 -35t-93.5 35t-37 91.5zM551 101.5q0 56.5 37 93t93 36.5t94 -36.5t38 -93t-38 -91.5t-94 -35t-93 35t-37 91.5zM1006 101.5q0 56.5 36.5 93t93 36.5t94.5 -36.5t38 -93t-38 -91.5t-94.5 -35t-93 35 t-36.5 91.5z" />
<glyph unicode="&#x2039;" horiz-adv-x="872" d="M59 595q0 36 29 54l614 381q14 7 26 8q14 0 24 -11q21 -22 21 -54q0 -39 -30 -58l-524 -321l524 -322q31 -15 32 -46q0 -41 -24 -66q-10 -11 -23 -11q-12 0 -26 9l-614 383q-29 18 -29 54z" />
<glyph unicode="&#x203a;" horiz-adv-x="872" d="M121 1027q10 11 23 11q11 0 26 -8l614 -381q29 -18 29 -54t-29 -54l-614 -383q-14 -9 -25 -9q-13 0 -23 11q-19 20 -22 45v11q0 42 29 56l524 322l-524 321q-30 19 -30 51q0 38 22 61z" />
<glyph unicode="&#x20ac;" horiz-adv-x="1263" d="M94 438q0 55 49 56h74q-2 16 -2 32v35q0 49 6 98h-110q-16 0 -17 25q0 55 49 55h93q76 295 337 392q84 29 146.5 28.5t118 -7.5t112.5 -30q137 -51 170 -178q6 -28 6 -52q0 -39 -16 -67q-49 -84 -109.5 -84t-85 22.5t-24.5 29t10 14.5t25 22q33 37 32.5 84.5t-22 82 t-51.5 57.5q-58 37 -126 37h-14q-76 -4 -128 -34t-89 -77q-70 -92 -96 -240h389q16 0 17 -24q0 -55 -50 -56h-366q-3 -46 -3 -72v-12q1 -27 1 -45t2 -36h305q16 0 16 -25q0 -55 -49 -55h-260q51 -246 225 -326q57 -27 120 -27t111 19.5t85 54.5q68 57 115 172q14 29 40 12 q32 -22 33 -45q0 -8 -4 -16q-121 -283 -434 -283q-276 0 -426 254q-49 80 -70 185h-118q-17 -1 -17 24z" />
<glyph unicode="&#x2122;" horiz-adv-x="3049" d="M53 954l6 289q0 49 56 49h1001q53 0 53 -49l9 -289q0 -41 -52 -41q-61 0 -69 37q-20 143 -51 189q-47 74 -150 78h-139v-977q0 -117 57 -146q27 -12 61.5 -12t49 -4t15.5 -44t-36 -40q-98 6 -232 6t-265 -6q-37 0 -36 40t14 44t49 4t62.5 13.5t39.5 35.5q18 33 18 109 v977h-141q-102 -4 -133 -52q-43 -68 -66 -215q-8 -37 -64.5 -37t-56.5 41zM1315 1264.5q0 33.5 23.5 37t79 3.5t116.5 -9.5t113 -31.5q100 -45 155 -177l352 -790h7l403 995h117q145 0 244 6q36 0 35 -37q0 -42 -15 -47q-14 -4 -49 -4t-61.5 -13t-38.5 -36q-18 -35 -19 -108 v-813q0 -117 57 -146q27 -12 62 -12t49 -4q15 -4 15 -46q0 -38 -35 -38q-98 6 -232.5 6t-265.5 -6q-37 0 -36 40t14.5 44t49 4t62.5 13.5t39 35.5q18 33 18 109v813h-6l-422 -1043q-8 -20 -41 -20q-31 0 -43 20l-460 1043h-7l4 -813q0 -117 56 -146q25 -12 60.5 -12t49 -4 t15.5 -44t-35 -40q-98 6 -127 6h-111q-53 0 -151 -6q-37 0 -36 40t14.5 44t49 4t61 13.5t38.5 35.5q16 31 16 109l4 813q0 90 -24 114q-39 37 -90.5 46.5t-62.5 13.5t-11 37.5z" />
<glyph unicode="&#xe000;" horiz-adv-x="935" d="M0 935h935v-935h-935v935z" />
<glyph unicode="&#xfb01;" horiz-adv-x="1259" d="M67 894q13 3 33 3h144q4 281 157 438q143 147 381 148q162 0 232 -115q23 -37 22.5 -91t-36 -104.5t-93 -50.5t-82 22.5t-24.5 30t11 15.5t24 22q37 43 36 95q0 113 -143 112q-211 0 -276 -289q-21 -90 -21 -211v-22h322l288 66q18 4 19 -15v-788q0 -88 106 -88 q18 0 31.5 -3t14.5 -39v-2q0 -34 -31 -34q-88 6 -215 6q-123 0 -176.5 -3t-61.5 9t-6 36t14.5 27t32.5 3q104 0 104 88v569q0 88 -104 88h-338v-657q0 -88 105 -88q20 0 32.5 -3t13.5 -39t-30 -36q-106 7 -213.5 7t-214.5 -7q-33 0 -32 36t13.5 39t32.5 3q104 0 105 88v657 h-158q-34 0 -34 35q1 39 15 42z" />
<glyph unicode="&#xfb02;" horiz-adv-x="1288" d="M60 925q13 3 34 3h144v76q0 330 215 440q79 40 160 40q47 0 96 -14q96 -29 132 -85t36 -108t-35 -100.5t-89.5 -48.5t-78 21.5t-23.5 29t11.5 15.5t23.5 23q35 45 35 90t-34 76.5t-93 31.5t-95 -42t-53 -101q-20 -74 -20 -232v-112h201q20 0 34.5 -3t15.5 -40t-34 -37 h-217v-688q0 -88 104 -88q20 0 32.5 -3t14 -39t-29.5 -36q-108 7 -215 7t-213 -7q-33 0 -32 36t13.5 39t32.5 3q104 0 105 88v688h-158q-34 0 -34 35q0 39 14 42zM750 1380q0 39 32 47q123 18 189 41q68 23 92 23q8 0 12 -2q14 -10 15 -35v-1294q0 -88 106 -88q18 0 32 -3 t14 -41q0 -34 -32 -34q-90 6 -215 6t-213 -6q-33 0 -31.5 36t14.5 39t44 3t52.5 11t29.5 32q12 23 12 96v1051q0 88 -104 88q-18 0 -33.5 5t-15.5 25z" />
<glyph unicode="&#xfb03;" horiz-adv-x="2013" d="M60 925q13 3 34 3h144v76q0 330 215 440q79 40 160 40q47 0 96 -14q96 -29 132 -85t36 -108t-35 -100.5t-89.5 -48.5t-78 21.5t-23.5 29t11.5 15.5t23.5 23q35 45 35 90t-34 76.5t-93 31.5t-95 -42t-53 -101q-20 -74 -20 -232v-112h201q20 0 34.5 -3t15.5 -40t-34 -37 h-217v-688q0 -88 104 -88q20 0 32.5 -3t14 -39t-29.5 -36q-108 7 -215 7t-213 -7q-33 0 -32 36t13.5 39t32.5 3q104 0 105 88v688h-158q-34 0 -34 35q0 39 14 42zM763 925q13 3 34 3h143v76q0 330 215 440q79 40 161 40q47 0 95 -14q96 -29 132 -85t36 -108t-35 -100.5 t-89 -48.5t-77.5 21.5t-23.5 29t11 15.5t24 23q35 45 34.5 90t-34 76.5t-93 31.5t-95.5 -42t-52 -101q-20 -74 -21 -232v-112h201q20 0 34.5 -3t15.5 -40t-33 -37h-218v-688q0 -88 105 -88q20 0 32.5 -3t13.5 -39t-30 -36q-108 7 -214.5 7t-213.5 -7q-33 0 -31.5 36t13.5 39 t33 3q104 0 104 88v688h-158q-34 0 -33 35q0 39 14 42zM1475 852q0 37 32 45q123 18 189 41q68 23 92 23q8 0 12 -3q14 -10 15 -34v-764q0 -88 106 -88q18 0 32 -3t14 -41q0 -34 -32 -34q-88 6 -215 6q-123 0 -176 -3t-61 9t-6 36t14 27t33 3q104 0 104 88v573q0 86 -104 86 q-18 0 -33.5 5t-15.5 28zM1565 1313q0 39 9 60.5t28 39.5q47 43 91 43t64.5 -7t36.5 -24q41 -35 41 -87t-35 -90t-79 -38t-67.5 6.5t-43.5 20.5q-45 37 -45 76z" />
<glyph unicode="&#xfb04;" horiz-adv-x="1990" d="M60 925q13 3 34 3h144v76q0 330 215 440q79 40 160 40q47 0 96 -14q96 -29 132 -85t36 -108t-35 -100.5t-89.5 -48.5t-78 21.5t-23.5 29t11.5 15.5t23.5 23q35 45 35 90t-34 76.5t-93 31.5t-95 -42t-53 -101q-20 -74 -20 -232v-112h201q20 0 34.5 -3t15.5 -40t-34 -37 h-217v-688q0 -88 104 -88q20 0 32.5 -3t14 -39t-29.5 -36q-108 7 -215 7t-213 -7q-33 0 -32 36t13.5 39t32.5 3q104 0 105 88v688h-158q-34 0 -34 35q0 39 14 42zM763 925q13 3 34 3h143v76q0 330 215 440q79 40 161 40q47 0 95 -14q96 -29 132 -85t36 -108t-35 -100.5 t-89 -48.5t-77.5 21.5t-23.5 29t11 15.5t24 23q35 45 34.5 90t-34 76.5t-93 31.5t-95.5 -42t-52 -101q-20 -74 -21 -232v-112h201q20 0 34.5 -3t15.5 -40t-33 -37h-218v-688q0 -88 105 -88q20 0 32.5 -3t13.5 -39t-30 -36q-108 7 -214.5 7t-213.5 -7q-33 0 -31.5 36t13.5 39 t33 3q104 0 104 88v688h-158q-34 0 -33 35q0 39 14 42zM1452 1380q0 39 33 47q123 18 188 41q68 23 93 23q8 0 12 -2q14 -10 14 -35v-1294q0 -88 106 -88q18 0 32 -3t15 -41q0 -34 -32 -34q-90 6 -215 6t-213 -6q-33 0 -32 36t14.5 39t44 3t52 11t29.5 32q12 23 13 96v1051 q0 88 -105 88q-18 0 -33.5 5t-15.5 25z" />
</font>
</defs>
</svg>
